<?xml version="1.0" standalone="no"?>
<!DOCTYPE svg PUBLIC "-//W3C//DTD SVG 1.1//EN" "http://www.w3.org/Graphics/SVG/1.1/DTD/svg11.dtd" >
<svg>
<metadata>
Created by FontForge 20110222 at Mon Jul 28 09:43:33 2014
 By Orthosie Webhosting
(c) 2010 Adobe Systems Incorporated. All Rights Reserved.
</metadata>
<defs>
<font id="AdobeTextProRegular" horiz-adv-x="397" >
  <font-face 
    font-family="AdobeTextProRegular"
    font-weight="400"
    font-stretch="normal"
    units-per-em="1000"
    panose-1="2 5 6 3 5 5 5 2 2 4"
    ascent="716"
    descent="-284"
    x-height="444"
    cap-height="645"
    bbox="-202 -281 1381 958"
    underline-thickness="50"
    underline-position="-50"
    unicode-range="U+0020-FB06"
  />
<missing-glyph horiz-adv-x="500" 
d="M0 0v700h500v-700h-500zM250 395l170 255h-340zM280 350l170 -255v510zM80 50h340l-170 255zM50 605v-510l170 255z" />
    <glyph glyph-name="f_f" unicode="ff" horiz-adv-x="566" 
d="M252 0h-229v30q46 3 57.5 9.5t11.5 30.5v327h-62v24q51 17 62 27q0 62 26 122.5t75 97.5q43 32 96 32q32 0 47 -11t15 -26q0 -23 -16.5 -39t-29.5 -16q-11 0 -40 25q-22 19 -36 19q-23 0 -39.5 -33.5t-15.5 -102.5v-72h199q2 70 30 134.5t76 101.5q45 35 99 35
q68 0 68 -42q0 -19 -15 -36.5t-33 -17.5q-15 0 -35 17q-14 12 -27 22q-7 5 -19 5q-25 0 -43.5 -37.5t-18.5 -106.5v-75h114q4 -25 -7 -47h-106v-325q0 -26 14.5 -32.5t74.5 -9.5v-30h-241v30q42 2 55.5 9t13.5 31v327h-199v-325q0 -26 13.5 -33.5t64.5 -8.5v-30z" />
    <glyph glyph-name="f_f_i" unicode="ffi" horiz-adv-x="807" 
d="M175 444h188q2 95 29 152q-12 8 -29 35q-14 27 -33 35q-12 5 -34 5q-53 0 -87 -43.5t-34 -138.5v-45zM251 0h-228v30q46 3 57.5 9.5t11.5 30.5v327h-62v24q51 17 62 27q0 68 25.5 125t71.5 91q53 39 125 39q91 0 130 -42q54 54 137 54q69 0 103.5 -25t34.5 -59
q0 -26 -15 -39.5t-33 -13.5q-21 0 -32 11t-12 28q-2 33 -5 43.5t-12 15.5q-13 9 -45 9q-119 0 -119 -204v-37h163q85 0 113 6q-3 -52 -3 -98v-282q0 -30 20 -34q12 -3 41 -6v-30h-213v30q38 3 51 6q11 2 14.5 9t3.5 24v297q0 18 -7.5 25t-25.5 7h-157v-326q0 -26 13 -32.5
t59 -9.5v-30h-223v30q41 2 54.5 9t13.5 31v328h-189v-326q0 -25 13.5 -33t63.5 -9v-30z" />
    <glyph glyph-name="f_f_l" unicode="ffl" horiz-adv-x="806" 
d="M174 444h189q2 91 30 152q-12 33 -39.5 53t-64.5 20q-55 0 -85 -46t-30 -132v-47zM251 0h-228v30q46 3 57.5 9.5t11.5 30.5v327h-62v24q51 17 62 27q0 142 96 213q58 42 125 42q82 0 130 -46q57 58 133 58q56 0 87 -21q18 4 48 22h11q-3 -40 -3 -125v-517q0 -25 11 -33.5
t53 -11.5v-29h-209v30q42 3 52 11.5t10 34.5v501q0 34 -11 53q-26 47 -84 47q-52 0 -74 -50.5t-22 -122.5v-60h114q4 -24 -7 -46h-106v-326q0 -26 13.5 -32.5t72.5 -9.5v-30h-237v30q41 2 54.5 9t13.5 31v328h-189v-326q0 -25 13.5 -33t63.5 -9v-30z" />
    <glyph glyph-name="longs_t" unicode="&#x17f;t" horiz-adv-x="587" 
d="M264 0h-241v30q43 2 56 10t13 33v322h-62v24q43 14 62 29q-1 67 23.5 130.5t71.5 100.5q48 36 107 36q66 0 102 -35t36 -90v-146h135q5 -30 -7 -49h-131v-284q0 -33 17 -51t45 -18q41 0 74 25v-28q-45 -49 -108 -49q-44 0 -77 26.5t-33 91.5v287h-63v24q48 15 65 29
q5 53 5 137q0 47 -22 69q-23 25 -63 25q-95 0 -95 -202v-401q0 -25 15 -33.5t75 -12.5v-30z" />
    <glyph glyph-name="T_h" unicode="Th" horiz-adv-x="1098" 
d="M496 0h-300v30q36 2 66 7q38 7 38 54v519h-102q-32 0 -53 -15q-46 -35 -82 -123l-27 7q23 122 24 176q50 -10 116 -10h383q77 0 99.5 6.5t50.5 32.5h23v-292q62 64 140 64q61 0 95 -36q44 -44 44 -122v-229q0 -24 10 -30.5t51 -8.5v-30h-219v30q36 4 47 6q19 5 23.5 20.5
t4.5 81.5v166q0 48 -28 76q-23 23 -66 23q-54 0 -82 -27q-13 -13 -16.5 -24t-3.5 -40v-243q0 -27 18 -32q3 -1 51 -7v-30h-214v30q26 3 43 6q20 4 20 30v476q0 26 -22 48q-20 20 -66 20h-169v-519q0 -46 40 -54q26 -5 63 -7v-30z" />
    <glyph glyph-name="Tcaron_h" unicode="&#x164;h" horiz-adv-x="1098" 
d="M496 0h-300v30q36 2 66 7q38 7 38 54v519h-102q-32 0 -53 -15q-46 -35 -82 -123l-27 7q23 122 24 176q50 -10 116 -10h383q77 0 99.5 6.5t50.5 32.5h23v-292q62 64 140 64q61 0 95 -36q44 -44 44 -122v-229q0 -24 10 -30.5t51 -8.5v-30h-219v30q36 4 47 6q19 5 23.5 20.5
t4.5 81.5v166q0 48 -28 76q-23 23 -66 23q-54 0 -82 -27q-13 -13 -16.5 -24t-3.5 -40v-243q0 -27 18 -32q3 -1 51 -7v-30h-214v30q26 3 43 6q20 4 20 30v476q0 26 -22 48q-20 20 -66 20h-169v-519q0 -46 40 -54q26 -5 63 -7v-30zM182 813l14 26q23 -9 77 -32.5t71 -30.5
q112 49 148 63l12 -26q-64 -41 -149 -115h-26q-100 84 -147 115z" />
    <glyph glyph-name="uni021A_h" unicode="&#x21a;h" horiz-adv-x="1098" 
d="M496 0h-300v30q36 2 66 7q38 7 38 54v519h-102q-32 0 -53 -15q-46 -35 -82 -123l-27 7q23 122 24 176q50 -10 116 -10h383q77 0 99.5 6.5t50.5 32.5h23v-292q62 64 140 64q61 0 95 -36q44 -44 44 -122v-229q0 -24 10 -30.5t51 -8.5v-30h-219v30q36 4 47 6q19 5 23.5 20.5
t4.5 81.5v166q0 48 -28 76q-23 23 -66 23q-54 0 -82 -27q-13 -13 -16.5 -24t-3.5 -40v-243q0 -27 18 -32q3 -1 51 -7v-30h-214v30q26 3 43 6q20 4 20 30v476q0 26 -22 48q-20 20 -66 20h-169v-519q0 -46 40 -54q26 -5 63 -7v-30zM292 -270l-8 28q74 27 74 65
q0 15 -10.5 23.5t-39.5 12.5q-33 5 -33 37q0 17 14 30t38 13q33 0 58.5 -23.5t25.5 -66.5q0 -49 -35.5 -79t-83.5 -40z" />
    <glyph glyph-name="f_b" unicode="fb" horiz-adv-x="809" 
d="M264 0h-241v30q43 2 56 10t13 33v322h-62v24q43 14 62 29q0 68 26 129t68 94q53 44 118 44q56 0 85 -19q21 4 47 20h15q-5 -125 -5 -132v-181q71 53 142 53q73 0 123 -53q56 -59 56 -163q0 -122 -82 -195q-63 -57 -150 -57q-59 0 -118 25q-16 -2 -46 -13l-11 8
q3 54 3 156v415q0 36 -8 49q-28 48 -84 48q-97 0 -97 -156v-76h113q4 -27 -7 -49h-106v-319q0 -25 15 -33.5t75 -12.5v-30zM446 322v-153q0 -72 14 -97q15 -26 40 -38t45 -12q50 0 80 34q49 54 49 166q0 83 -33 133q-36 51 -98 51q-43 0 -74 -23q-16 -11 -19.5 -20t-3.5 -41
z" />
    <glyph glyph-name="f_h" unicode="fh" horiz-adv-x="807" 
d="M251 0h-228v30q43 2 56 10t13 33v322h-62v24q43 14 62 29q0 68 26 129t67 94q55 44 119 44q58 0 86 -19q20 4 47 20h14q-5 -125 -5 -131v-193q64 64 137 64q58 0 94 -36q43 -44 43 -122v-229q0 -24 10 -30.5t51 -8.5v-30h-219v30q36 4 47 6q19 5 24 20.5t5 81.5v165
q0 47 -29 76q-23 23 -64 23q-51 0 -82 -31q-11 -11 -14 -21.5t-3 -42.5v-238q1 -24 12.5 -29t57.5 -10v-30h-214v30q39 4 50.5 10.5t11.5 27.5v511q0 36 -8 49q-30 48 -85 48q-97 0 -97 -156v-76h113q4 -27 -7 -49h-106v-319q0 -25 12.5 -33.5t64.5 -12.5v-30z" />
    <glyph glyph-name="f_i" unicode="fi" horiz-adv-x="534" 
d="M246 0h-223v30q45 3 57 9.5t12 29.5v329h-62v24q47 16 62 29q1 73 27.5 133t72.5 93q53 38 120 38q70 0 102 -24.5t32 -59.5q0 -25 -15.5 -38.5t-32.5 -13.5q-39 0 -43 39q0 5 -1 13t-1 12t-1 9.5t-2 8.5t-2.5 6.5t-4 5.5t-5.5 4q-17 8 -43 8q-63 0 -92 -57t-29 -143v-41
h186q68 0 89 8q-3 -24 -3 -100v-282q0 -24 10 -30t51 -10v-30h-210v30q44 4 55 9.5t11 29.5v301q0 16 -4.5 22t-18.5 6h-166v-326q0 -25 13 -32t59 -10v-30z" />
    <glyph glyph-name="f_j" unicode="fj" horiz-adv-x="525" 
d="M258 0h-235v30q45 3 57 9.5t12 29.5v329h-62v24q48 16 62 29q1 74 27 133.5t71 92.5q53 38 117 38q71 0 105 -25t34 -59q0 -25 -15.5 -39t-32.5 -14q-39 0 -43 39q0 5 -1 13t-1 12t-1 10t-2 8.5t-2.5 6t-4 6t-5.5 3.5q-20 9 -46 9q-33 0 -57 -18t-36.5 -48.5t-18.5 -63.5
t-6 -70v-41h186q68 0 89 8q-3 -24 -3 -100v-291q0 -110 -22 -157q-25 -52 -65 -92t-66 -55l-20 22q57 52 73.5 95.5t16.5 107.5v388q0 16 -4.5 22t-18.5 6h-166v-326q0 -25 14.5 -32t69.5 -10v-30z" />
    <glyph glyph-name="f_k" unicode="fk" horiz-adv-x="777" 
d="M251 0h-228v30q43 2 56 10t13 33v322h-62v24q43 14 62 29q0 68 26 129t67 94q55 44 119 44q58 0 86 -19q20 4 47 20h14q-5 -125 -5 -131v-354q60 42 145 129q22 23 22 35q0 8 -17 12q-17 5 -49 7v30h211v-30q-20 -1 -37 -5q-30 -6 -67 -36q-68 -57 -108 -99q-4 -4 0 -7
q17 -25 73.5 -95t88.5 -106q17 -19 34 -26.5t52 -9.5v-30h-229v30q52 4 52 15q0 3 -12 23q-25 37 -116 152q-4 6 -9 2q-17 -9 -34 -24v-129q0 -21 12 -28t58 -11v-30h-214v30q41 3 51.5 10t10.5 31v508q0 36 -8 49q-30 48 -85 48q-97 0 -97 -156v-76h113q4 -27 -7 -49h-106
v-319q0 -25 12.5 -33.5t64.5 -12.5v-30z" />
    <glyph glyph-name="f_l" unicode="fl" horiz-adv-x="534" 
d="M251 0h-228v30q43 2 56 10t13 33v322h-62v24q43 14 62 29q0 68 26 129t67 94q55 44 119 44q58 0 86 -19q20 4 47 20h14q-5 -125 -5 -131v-511q0 -25 11 -33.5t54 -11.5v-29h-209v30q42 3 52 11.5t10 34.5v503q0 36 -8 49q-30 48 -85 48q-97 0 -97 -156v-76h113
q4 -27 -7 -49h-106v-319q0 -25 12.5 -33.5t64.5 -12.5v-30z" />
    <glyph glyph-name="f_t" unicode="ft" horiz-adv-x="603" 
d="M254 0h-231v30q45 3 57 10t12 31v327h-62v24q47 16 62 29q0 67 26.5 131.5t75.5 101.5q41 32 95 32q60 0 60 -37q0 -23 -17 -39.5t-29 -16.5t-43 27q-21 18 -32 18q-23 0 -38.5 -32.5t-15.5 -102.5v-89h190q19 52 62 112h39q-11 -45 -17 -112h135q6 -23 -6 -46h-132v-287
q0 -33 17 -51t45 -18q43 0 74 25v-28q-44 -49 -108 -49q-44 0 -77 26.5t-33 91.5v290h-189v-325q0 -25 12.5 -31.5t67.5 -11.5v-30z" />
    <glyph glyph-name="f_f_b" unicode="ffb" horiz-adv-x="1082" 
d="M174 444h189q2 91 30 152q-12 33 -39.5 53t-64.5 20q-55 0 -85 -46t-30 -132v-47zM251 0h-228v30q46 3 57.5 9.5t11.5 30.5v327h-62v24q51 17 62 27q0 142 96 213q58 42 125 42q82 0 130 -46q57 58 133 58q56 0 87 -21q18 4 48 22h11q-3 -40 -3 -135v-180q74 55 142 55
q73 0 123 -53q56 -59 56 -163q0 -119 -85 -195q-31 -28 -73.5 -42.5t-78.5 -14.5q-59 0 -118 25q-8 -1 -41 -16l-11 8q3 55 3 159v404q0 43 -11 62q-26 47 -84 47q-52 0 -74 -50.5t-22 -122.5v-60h114q4 -24 -7 -46h-106v-326q0 -26 13.5 -32.5t72.5 -9.5v-30h-237v30
q41 2 54.5 9t13.5 31v328h-189v-326q0 -25 13.5 -33t63.5 -9v-30zM719 320v-151q0 -75 13 -98q29 -49 81 -49q47 0 82 34q52 52 52 166q0 83 -33 133q-36 51 -98 51q-41 0 -74 -25q-16 -11 -19.5 -20t-3.5 -41z" />
    <glyph glyph-name="f_f_h" unicode="ffh" horiz-adv-x="1079" 
d="M174 444h189q2 91 30 152q-12 33 -39.5 53t-64.5 20q-55 0 -85 -46t-30 -132v-47zM251 0h-228v30q46 3 57.5 9.5t11.5 30.5v327h-62v24q51 17 62 27q0 142 96 213q58 42 125 42q82 0 130 -46q57 58 133 58q56 0 87 -21q18 4 48 22h11q-3 -40 -3 -125v-199q64 64 136 64
q58 0 94 -36q43 -44 43 -122v-229q0 -24 10 -30.5t51 -8.5v-30h-219v30q36 4 48 6q19 5 23.5 20.5t4.5 81.5v165q0 47 -29 76q-23 23 -63 23q-52 0 -83 -31q-11 -10 -13.5 -20.5t-2.5 -43.5v-238q0 -24 11.5 -29t57.5 -10v-30h-214v30q40 4 51 10.5t11 27.5v509q0 34 -11 53
q-26 47 -84 47q-52 0 -74 -50.5t-22 -122.5v-60h114q4 -24 -7 -46h-106v-326q0 -26 13.5 -32.5t72.5 -9.5v-30h-237v30q41 2 54.5 9t13.5 31v328h-189v-326q0 -25 13.5 -33t63.5 -9v-30z" />
    <glyph glyph-name="f_f_j" unicode="ffj" horiz-adv-x="798" 
d="M175 444h188q2 95 29 152q-13 7 -32 39q-13 21 -23 28q-16 8 -41 8q-53 0 -87 -43.5t-34 -138.5v-45zM251 0h-228v30q46 3 57.5 9.5t11.5 30.5v327h-62v24q51 17 62 27q0 68 25.5 125t71.5 91q53 39 125 39q94 0 130 -42q53 54 137 54q69 0 103.5 -25t34.5 -59
q0 -26 -15 -39.5t-33 -13.5q-21 0 -32 11t-12 28q-2 33 -5 43.5t-12 15.5q-13 9 -45 9q-119 0 -119 -204v-37h163q85 0 113 6q-3 -50 -3 -98v-291q0 -110 -22 -157q-25 -52 -65 -92t-66 -55l-20 22q57 52 73.5 95.5t16.5 107.5v384q0 18 -7.5 25t-25.5 7h-157v-326
q0 -26 13 -32.5t59 -9.5v-30h-223v30q41 2 54.5 9t13.5 31v328h-189v-326q0 -25 13.5 -33t63.5 -9v-30z" />
    <glyph glyph-name="f_f_k" unicode="ffk" horiz-adv-x="1049" 
d="M174 444h189q2 91 30 152q-12 33 -39.5 53t-64.5 20q-55 0 -85 -46t-30 -132v-47zM532 0h-237v30q41 2 54.5 9t13.5 31v328h-189v-326q0 -25 13.5 -33t63.5 -9v-30h-228v30q46 3 57.5 9.5t11.5 30.5v327h-62v24q51 17 62 27q0 142 96 213q58 42 125 42q82 0 130 -46
q57 58 133 58q56 0 87 -21q18 4 48 22h11q-3 -40 -3 -125v-360q60 43 144 129q23 24 23 35q0 8 -17 12q-19 5 -50 7v30h211v-30q-18 -1 -37 -5q-30 -6 -67 -36q-57 -48 -108 -99q-4 -4 0 -7q18 -26 75 -96.5t87 -104.5q17 -19 34.5 -26.5t52.5 -9.5v-30h-230v30q52 4 52 15
q0 3 -12 23q-25 37 -116 152q-4 6 -9 2q-21 -12 -33 -24v-129q0 -21 11.5 -28t57.5 -11v-30h-214v30q41 3 51.5 10t10.5 31v506q0 34 -11 53q-26 47 -84 47q-52 0 -74 -50.5t-22 -122.5v-60h114q4 -24 -7 -46h-106v-326q0 -26 13.5 -32.5t72.5 -9.5v-30z" />
    <glyph glyph-name="f_f_t" unicode="fft" horiz-adv-x="875" 
d="M252 0h-229v30q46 3 57.5 9.5t11.5 30.5v327h-62v24q51 17 62 27q0 64 23 124t71 96q43 32 94 32q59 0 59 -36q0 -23 -17 -39.5t-29 -16.5q-10 0 -41 26q-21 18 -32 18q-47 0 -46 -134v-74h189q2 72 28 136t73 100q45 35 99 35q68 0 68 -42q0 -19 -15 -36.5t-33 -17.5
q-15 0 -35 17q-14 12 -27 22q-7 5 -19 5q-24 0 -40.5 -37t-16.5 -107v-75h191q19 52 62 112h39q-11 -45 -17 -112h135q6 -23 -6 -46h-132v-287q0 -33 17 -51t45 -18q43 0 74 25v-28q-44 -49 -108 -49q-44 0 -77 26.5t-33 91.5v290h-189v-326q0 -26 14.5 -32.5t74.5 -9.5v-30
h-241v30q42 2 55.5 9t13.5 31v328h-189v-326q0 -26 13.5 -33.5t64.5 -8.5v-30z" />
    <glyph glyph-name="longs_b" unicode="&#x17f;b" horiz-adv-x="802" 
d="M264 0h-241v30q43 2 56 10t13 33v322h-62v24q43 14 62 29q0 150 93 223q53 44 120 44q52 0 78 -17q26 5 46 18h15q-5 -125 -5 -132v-183q74 55 141 55q70 0 124 -54q56 -59 56 -162q0 -119 -85 -195q-63 -57 -151 -57q-60 0 -121 25q-6 -1 -39 -16l-11 8q3 55 3 159v418
q0 34 -8 49q-22 43 -78 43q-96 0 -96 -156v-442q0 -25 15 -33.5t75 -12.5v-30zM439 320v-153q0 -72 14 -97q28 -48 82 -48q45 0 80 34q52 51 52 166q0 82 -35 133q-34 51 -98 51q-44 0 -74 -24q-15 -10 -18 -19.5t-3 -42.5z" />
    <glyph glyph-name="longs_h" unicode="&#x17f;h" horiz-adv-x="800" 
d="M261 0h-238v30q43 2 56 10t13 33v322h-62v24q43 14 62 29q0 150 93 223q53 44 119 44q53 0 79 -17q26 5 46 18h15q-5 -125 -5 -132v-192q64 64 136 64q58 0 94 -36q43 -44 43 -122v-229q0 -24 10 -30.5t51 -8.5v-30h-219v30q37 4 48 6q19 5 23.5 20.5t4.5 81.5v165
q0 48 -28 76q-24 23 -64 23q-52 0 -83 -31q-11 -10 -13.5 -20.5t-2.5 -43.5v-238q0 -22 11 -28t47 -10q7 -1 11 -1v-30h-214v30q40 4 51 10.5t11 27.5v514q0 34 -8 49q-22 43 -76 43q-98 0 -98 -153v-445q0 -25 14.5 -33.5t72.5 -12.5v-30z" />
    <glyph glyph-name="longs_i" unicode="&#x17f;i" horiz-adv-x="532" 
d="M246 0h-223v30q46 3 57.5 10t11.5 30v328h-62v24q47 16 62 29q1 74 27 133.5t71 92.5q53 38 118 38q71 0 104.5 -25t33.5 -59q0 -25 -15.5 -39t-32.5 -14q-39 0 -43 39q0 5 -1 13t-1 12t-1 10t-2 9t-2.5 6.5t-4 5.5t-5.5 4q-17 8 -46 8q-43 0 -71 -32.5t-37.5 -75
t-9.5 -92.5v-419q0 -12 6 -19.5t19.5 -11.5t21.5 -5t25 -3v-27zM505 0h-212v30q47 4 58 9.5t11 29.5v239q0 38 -2 48t-11 16q-11 7 -45 18v24q66 8 136 43l7 -6q-3 -48 -3 -92v-289q0 -23 10 -29.5t51 -10.5v-30z" />
    <glyph glyph-name="longs_k" unicode="&#x17f;k" horiz-adv-x="761" 
d="M261 0h-238v30q43 2 56 10t13 33v322h-62v24q43 14 62 29q0 150 93 223q53 44 119 44q53 0 79 -17q26 5 46 18h15q-5 -125 -5 -132v-353q60 43 144 129q23 24 23 35q0 8 -17 12q-19 5 -50 7v30h211v-30q-18 -1 -37 -5q-29 -6 -66 -36q-51 -42 -110 -101q-4 -4 0 -8
q17 -26 71 -95t83 -103q16 -19 33.5 -26.5t52.5 -9.5v-30h-229v30q52 4 52 15q0 3 -12 23q-31 45 -111 149q-4 6 -9 2q-19 -11 -29 -21v-129q0 -21 11.5 -28t57.5 -11v-30h-214v30q41 3 51.5 10t10.5 31v511q0 34 -8 49q-22 43 -76 43q-98 0 -98 -159v-439q0 -25 14.5 -33.5
t72.5 -12.5v-30z" />
    <glyph glyph-name="longs_l" unicode="&#x17f;l" horiz-adv-x="526" 
d="M261 0h-238v30q43 2 56 10t13 33v322h-62v24q43 14 62 29q0 150 93 223q53 44 119 44q53 0 79 -17q26 5 46 18h15q-5 -125 -5 -132v-510q0 -25 11 -33.5t53 -11.5v-29h-209v30q42 3 52 11.5t10 34.5v506q0 34 -8 49q-22 43 -76 43q-98 0 -98 -169v-429q0 -25 14.5 -33.5
t72.5 -12.5v-30z" />
    <glyph glyph-name="longs_longs" unicode="&#x17f;&#x17f;" horiz-adv-x="534" 
d="M249 0h-226v30q46 3 57.5 9.5t11.5 30.5v327h-62v24q51 17 62 27q0 64 24 124t71 96q44 32 95 32q58 0 58 -36q0 -23 -17 -39.5t-29 -16.5q-13 0 -40 26q-18 18 -32 18q-48 0 -48 -134v-446q0 -25 12.5 -32t62.5 -10v-30zM516 0h-222v30q42 2 55.5 9t13.5 31v327h-62v24
q49 16 62 27q2 71 28 133t74 99q43 35 99 35q67 0 67 -42q0 -18 -15 -36t-32 -18q-15 0 -35 17q-1 1 -10.5 9t-17.5 13q-6 5 -18 5q-25 0 -41 -36.5t-16 -107.5v-447q0 -26 10.5 -32t59.5 -10v-30z" />
    <glyph glyph-name="longs_longs_i" unicode="&#x17f;&#x17f;i" horiz-adv-x="807" 
d="M251 0h-228v30q46 3 57.5 9.5t11.5 30.5v327h-62v24q51 17 62 27q0 68 25.5 125t71.5 91q53 39 125 39q93 0 127 -45q54 57 140 57q69 0 103.5 -25t34.5 -59q0 -26 -15 -39.5t-33 -13.5q-21 0 -32 11t-12 28q-2 33 -5 43.5t-12 15.5q-13 9 -45 9q-119 0 -119 -206v-407
q0 -26 13 -32.5t59 -9.5v-30h-223v30q41 2 54.5 9t13.5 31v327h-62v24q49 16 62 27q2 86 27 139q-22 9 -32 48q-5 19 -20 28q-15 8 -42 8q-53 0 -87.5 -44.5t-34.5 -140.5v-414q0 -25 13.5 -33t63.5 -9v-30zM780 0h-214v30q48 4 59 9.5t11 29.5v239q0 38 -2 48t-11 16
q-10 7 -45 18v24q69 8 136 43l8 -6q-3 -48 -3 -92v-289q0 -23 10 -29.5t51 -10.5v-30z" />
    <glyph glyph-name="longs_longs_l" unicode="&#x17f;&#x17f;l" horiz-adv-x="806" 
d="M251 0h-228v30q46 3 57.5 9.5t11.5 30.5v327h-62v24q51 17 62 27q0 141 96 213q58 42 125 42q82 0 130 -46q57 58 133 58q56 0 87 -21q18 4 48 22h11q-3 -40 -3 -125v-522q0 -21 12.5 -29t51.5 -11v-29h-209v30q39 4 50.5 10.5t11.5 27.5v509q0 34 -11 53q-26 47 -84 47
q-36 0 -58 -27.5t-29.5 -63.5t-7.5 -82v-432q0 -26 12 -32t65 -10v-30h-228v30q41 2 54.5 9t13.5 31v327h-62v24q49 16 62 27q2 87 30 148q-12 33 -39.5 53t-64.5 20q-55 0 -85 -46t-30 -132v-419q0 -25 13.5 -33t63.5 -9v-30z" />
    <glyph glyph-name="gamma_gamma" unicode="&#x3b3;&#x3b3;" horiz-adv-x="935" 
d="M0 384v30q52 42 96 42q35 0 58.5 -25t47.5 -90q61 -164 79 -272q24 67 37 102t35 89t38.5 82t38.5 58t45 43t48 13q31 0 52 -23t50 -86q30 -65 62.5 -158.5t40.5 -134.5q8 16 24 48.5t23 46.5t18.5 38.5t16.5 37.5t11 31t8 31.5t2 26.5q0 18 -13 50l-6.5 13l-5.5 11
t-3.5 8.5t-1.5 9.5q0 18 18 34t43 16q19 0 29.5 -21.5t10.5 -46.5q0 -53 -30 -123t-74.5 -147.5t-55.5 -102.5q-10 -22 -8 -40q0 -14 4.5 -70t4.5 -88q0 -24 -19 -37t-43 -13q-23 0 -30.5 7t-7.5 26q0 14 4.5 38.5t9.5 44t11.5 46t8.5 32.5q4 20 2 30q-9 63 -52.5 163
t-85.5 170q-19 33 -29.5 44.5t-24.5 11.5q-32 0 -95 -130q-44 -89 -95 -235q-8 -21 -8 -39q1 -11 3.5 -47t4 -69t1.5 -58t-19 -36.5t-44 -11.5q-23 0 -31.5 6.5t-8.5 26.5q0 36 38 175q4 19 2 30q-10 71 -49 172t-83 180q-30 51 -58 51q-16 1 -45 -11z" />
    <glyph glyph-name="lambda_lambda" unicode="&#x3bb;&#x3bb;" horiz-adv-x="945" 
d="M107 0h-95q12 23 98.5 213.5t102.5 222.5q9 19 25 47q-19 43 -29.5 63.5t-26 43t-32.5 30.5t-39 8q-45 0 -87 -35l-15 19q47 91 115 91q42 0 72.5 -41t72.5 -159q119 -326 148 -394q26 -63 39 -63q5 0 41 73q37 75 136 287q9 20 18.5 35t15.5 23.5t7 10.5q-33 89 -63 127
t-70 38q-48 0 -95 -43l-17 17q48 101 123 101q50 0 79 -42.5t74 -169.5q11 -32 38 -111.5t42 -122t34.5 -93t32.5 -75.5q17 -32 29.5 -41.5t29.5 -9.5q21 0 35 7l2 -23q-32 -45 -78 -47q-42 -3 -69 65q-14 37 -32 94t-42.5 140.5t-29.5 101.5q-126 -298 -157 -361
q-14 -27 -40 -27h-68q-18 0 -26.5 6.5t-17.5 24.5q-7 12 -20 44.5t-28.5 78.5t-29 86.5t-28.5 86.5t-19 59q-13 -38 -51.5 -132.5t-69.5 -169.5t-35 -84z" />
    <glyph glyph-name=".notdef" horiz-adv-x="500" 
d="M0 0v700h500v-700h-500zM250 395l170 255h-340zM280 350l170 -255v510zM80 50h340l-170 255zM50 605v-510l170 255z" />
    <glyph glyph-name=".null" horiz-adv-x="0" 
 />
    <glyph glyph-name="nonmarkingreturn" horiz-adv-x="333" 
 />
    <glyph glyph-name="space" unicode=" " horiz-adv-x="213" 
 />
    <glyph glyph-name="exclam" unicode="!" horiz-adv-x="330" 
d="M210 196h-27q-6 94 -27 229t-21 161q0 32 16 53.5t45 21.5q28 0 43 -22t15 -52q0 -27 -19.5 -161.5t-24.5 -229.5zM195 -11q-21 0 -39 17t-18 45t16.5 47t41.5 19q26 0 43 -19.5t17 -45.5q0 -30 -18.5 -46.5t-42.5 -16.5z" />
    <glyph glyph-name="quotedbl" unicode="&#x22;" horiz-adv-x="404" 
d="M138 463h-29q-3 24 -15 110.5t-15 109.5v18q18 8 44 8q25 0 47 -6v-19q-9 -86 -32 -221zM293 463h-28q-3 25 -16 119t-14 101v18q20 8 45 8q28 0 46 -6v-19q-19 -152 -33 -221z" />
    <glyph glyph-name="numbersign" unicode="#" horiz-adv-x="497" 
d="M447 401h-91l-33 -141h96l-19 -64h-92l-46 -196h-35l45 196h-114l-46 -196h-38l47 196h-90l17 64h89l34 141h-92l16 65h92l43 179h35l-42 -179h112l41 179h37l-42 -179h94zM287 260l33 141h-113l-33 -141h113z" />
    <glyph glyph-name="dollar" unicode="$" horiz-adv-x="482" 
d="M255 266l-28 -236q59 -4 93.5 27t34.5 84q0 41 -20 68.5t-80 56.5zM238 369l27 227q-64 5 -96 -28.5t-32 -76.5q0 -42 21.5 -67.5t79.5 -54.5zM36 189l27 9q24 -72 55 -111.5t76 -53.5l29 244q-84 38 -122.5 77.5t-38.5 108.5q0 74 55 121.5t152 43.5l11 91h34l-12 -94
q34 -4 68 -16q10 5 25 18h20q-1 -43 20 -171l-28 -6q-35 127 -110 143l-29 -235q91 -41 130.5 -79t39.5 -110q0 -79 -60 -127.5t-155 -43.5l-12 -94h-34l12 97q-49 6 -77 15q-20 7 -47 2q-2 22 -15.5 96t-13.5 75z" />
    <glyph glyph-name="percent" unicode="%" horiz-adv-x="788" 
d="M623 671l28 -19l-469 -686l-29 21l407 590q-53 -31 -135 -31q-49 0 -85 10q17 -45 17 -91q0 -82 -41.5 -131.5t-110.5 -49.5q-71 0 -113.5 48t-42.5 127q0 80 40.5 131.5t118.5 51.5q38 0 82 -23q74 -40 137 -40q131 0 184 74zM203 613q-41 0 -59 -42.5t-18 -106.5
q0 -152 79 -152q39 0 56.5 43.5t17.5 108.5q0 149 -76 149zM597 344q66 0 108.5 -47t42.5 -129t-42 -131.5t-110 -49.5q-75 0 -115 48.5t-40 125.5q0 75 40 129t116 54zM592 315q-75 0 -75 -151q0 -72 20.5 -110.5t57.5 -38.5q76 0 76 150t-79 150z" />
    <glyph glyph-name="ampersand" unicode="&#x26;" horiz-adv-x="754" 
d="M266 388q66 44 89 79t23 71q0 39 -19.5 65.5t-56.5 26.5q-40 0 -63 -29t-23 -74q0 -65 50 -139zM712 395v-30q-54 -6 -73.5 -17t-47.5 -52q-103 -148 -107 -153q106 -92 164 -92q33 0 66 17v-25q-19 -25 -54 -40.5t-69 -15.5q-33 0 -69.5 17.5t-54 31.5t-44.5 39
q-27 -25 -46.5 -40.5t-57 -31.5t-76.5 -16q-91 0 -143 52.5t-52 131.5q0 49 32.5 86t114.5 91q-50 82 -50 151q0 66 44 114t118 48q66 0 103.5 -36.5t37.5 -86.5q0 -18 -3.5 -32.5t-14 -29t-17.5 -23.5t-27 -23t-28.5 -20t-37 -22.5t-37.5 -22.5q76 -106 176 -199
q63 87 90 150q10 23 -2.5 32t-68.5 16v31h234zM209 324q-37 -32 -53 -60t-16 -73q0 -59 37.5 -102.5t99.5 -43.5q63 0 120 53q-90 86 -188 226z" />
    <glyph glyph-name="quotesingle" unicode="'" horiz-adv-x="251" 
d="M140 463h-30q-12 97 -31 220v18q18 8 47 8q27 0 47 -6v-19q-3 -22 -9.5 -66.5t-14 -93t-9.5 -61.5z" />
    <glyph glyph-name="parenleft" unicode="(" horiz-adv-x="383" 
d="M316 721l14 -20q-182 -173 -182 -416q0 -269 181 -432l-14 -21q-115 64 -183 182.5t-68 266.5q0 133 69.5 252t182.5 188z" />
    <glyph glyph-name="parenright" unicode=")" horiz-adv-x="383" 
d="M68 -168l-13 20q181 172 181 416q0 269 -180 432l13 21q116 -65 184 -182.5t68 -266.5q0 -133 -69.5 -252t-183.5 -188z" />
    <glyph glyph-name="asterisk" unicode="*" horiz-adv-x="427" 
d="M196 517q7 35 5 74t0 47q5 17 17.5 24t25.5 4q15 -3 21.5 -16.5t2.5 -29.5q-3 -10 -21.5 -41.5t-27.5 -64.5l5 -6q40 13 67.5 33.5t38.5 23.5q18 5 30 -3t15 -22q3 -12 -5 -24t-23 -16q-13 -3 -44.5 -4t-71.5 -9l-3 -9q21 -16 52 -32.5t46 -28.5q13 -10 14.5 -26
t-6.5 -25q-9 -12 -24.5 -11.5t-28.5 14.5q-7 7 -24 37.5t-43 57.5l-6 -1q-7 -43 -5 -79t-2 -43q-4 -16 -16 -23.5t-26 -3.5q-31 10 -23 44q3 11 20 38t31 70l-5 4q-27 -7 -60.5 -27t-43.5 -24q-17 -6 -30.5 -0.5t-17.5 19.5q-4 13 2.5 25.5t23.5 17.5q10 3 49 3t70 7l2 8
q-21 18 -54 35t-44 26q-30 24 -11 51q8 12 23 13t31 -12q9 -9 27.5 -43.5t40.5 -55.5z" />
    <glyph glyph-name="plus" unicode="+" horiz-adv-x="636" 
d="M290 271v220h59v-220h213v-58h-213v-225h-59v225h-215v58h215z" />
    <glyph glyph-name="comma" unicode="," horiz-adv-x="265" 
d="M47 -151l-12 25q53 28 81.5 59t28.5 58q0 18 -14 29.5t-55 18.5q-4 1 -9 10t-5 21q0 21 15 37t45 16t55 -24.5t25 -73.5q0 -37 -18.5 -70t-45.5 -54t-50.5 -34t-40.5 -18z" />
    <glyph glyph-name="hyphen" unicode="-" horiz-adv-x="328" 
d="M50 206v60h229v-60h-229z" />
    <glyph glyph-name="period" unicode="." horiz-adv-x="245" 
d="M122 -11q-24 0 -42.5 16t-18.5 46q0 29 17.5 47.5t44.5 18.5t44 -18.5t17 -46.5q0 -30 -19.5 -46.5t-42.5 -16.5z" />
    <glyph glyph-name="slash" unicode="/" horiz-adv-x="453" 
d="M384 684l-266 -757h-49l265 757h50z" />
    <glyph glyph-name="zero" unicode="0" horiz-adv-x="482" 
d="M239 608q-38 0 -63 -34q-46 -64 -46 -252q0 -180 45 -255q29 -47 71 -47q36 0 57 27q50 61 50 267q0 200 -52 263q-23 31 -62 31zM248 641q52 0 92 -29q103 -75 103 -288q0 -212 -94 -295q-44 -41 -111 -41q-66 0 -114 46q-43 40 -64 115t-21 158q0 218 103 298
q44 36 106 36z" />
    <glyph glyph-name="one" unicode="1" horiz-adv-x="482" 
d="M105 0v30q70 5 84.5 13t14.5 40v365q0 98 -7 104q-12 11 -82 17v26q100 8 164 46h14q-3 -53 -3 -181v-378q0 -31 15 -39.5t79 -12.5v-30h-279z" />
    <glyph glyph-name="two" unicode="2" horiz-adv-x="482" 
d="M30 0l5 31q94 82 162 159q113 127 113 246q0 56 -26.5 97t-88.5 41q-42 0 -74 -21t-65 -69l-21 18q71 139 193 139q77 0 124.5 -51.5t47.5 -134.5q0 -68 -33.5 -124t-91.5 -116q-57 -58 -145 -142h205q40 0 70 34q19 22 46 65l27 -11q-49 -103 -64 -163q-48 2 -130 2
h-254z" />
    <glyph glyph-name="three" unicode="3" horiz-adv-x="482" 
d="M166 298v26q85 33 117 71t32 89q0 40 -27 68.5t-73 28.5q-42 0 -72.5 -19.5t-62.5 -58.5l-19 19q76 119 186 119q72 0 112.5 -43t40.5 -93q0 -98 -127 -154q69 -6 119 -44.5t50 -111.5q0 -88 -66 -149q-65 -60 -162 -60q-85 0 -134 38q-28 24 -28 51q0 19 13.5 32
t32.5 13q15 0 23.5 -10t15.5 -40q9 -33 25 -43q18 -10 54 -10q62 0 98.5 43.5t36.5 112.5q0 67 -36 99.5t-97 32.5q-33 0 -52 -7z" />
    <glyph glyph-name="four" unicode="4" horiz-adv-x="482" 
d="M360 0h-88q2 62 2 185h-255l5 35q39 60 156 227.5t140 192.5h38v-405q62 0 113 3q-4 -8 -9 -32l-5 -23q-46 2 -99 2q0 -154 2 -185zM274 235v295q-98 -130 -197 -295h197z" />
    <glyph glyph-name="five" unicode="5" horiz-adv-x="482" 
d="M191 626h166q54 0 82 9l5 -8q-25 -37 -41 -82h-202q-3 0 -5 -3q-27 -61 -49 -119q0 -4 1 -5q69 -18 129 -40q83 -31 120.5 -71t37.5 -109q0 -103 -88 -167q-58 -43 -132 -43q-85 0 -137 43q-27 22 -27 47q0 19 14.5 32t34.5 13q14 0 24 -11t18 -45q5 -28 22 -37
q26 -10 52 -10q59 0 94 37q40 43 40 107q0 61 -37.5 96t-120.5 65q-23 8 -103 30v11q20 43 56 134t46 126z" />
    <glyph glyph-name="six" unicode="6" horiz-adv-x="482" 
d="M426 645l5 -30q-85 -18 -147.5 -62t-94.5 -95.5t-46 -111.5q65 59 138 59q62 0 106 -42q59 -57 59 -148q0 -93 -55.5 -160t-146.5 -67q-98 0 -151.5 72t-53.5 175q0 154 106 270.5t281 139.5zM242 356q-50 0 -82 -29q-22 -20 -27 -50q-4 -23 -4 -53q0 -46 10.5 -89.5
t39.5 -79t73 -35.5q54 0 78.5 53t24.5 120q0 100 -49 142q-27 21 -64 21z" />
    <glyph glyph-name="seven" unicode="7" horiz-adv-x="482" 
d="M179 0h-68q54 88 143 260t135 285h-247q-26 0 -37 -5t-26 -25q-5 -6 -34 -58l-26 10q31 91 40 162q63 -3 108 -3h281l1 -20q-13 -45 -36 -98q-72 -170 -234 -508z" />
    <glyph glyph-name="eight" unicode="8" horiz-adv-x="482" 
d="M204 296q-81 -59 -81 -140q0 -55 33.5 -95.5t88.5 -40.5q48 0 77 33t29 79q0 48 -27 82.5t-120 81.5zM46 148q0 45 30.5 83t101.5 78q-59 38 -83.5 77.5t-24.5 88.5q0 70 52 118t127 48q70 0 119.5 -41t49.5 -109q0 -45 -28 -80.5t-89 -72.5q75 -41 103.5 -80.5
t28.5 -92.5q0 -76 -57.5 -126.5t-140.5 -50.5q-75 0 -132 43t-57 117zM278 353q68 58 68 135q0 49 -28 84.5t-77 35.5q-44 0 -70.5 -30.5t-26.5 -74.5q0 -45 26.5 -77.5t107.5 -72.5z" />
    <glyph glyph-name="nine" unicode="9" horiz-adv-x="482" 
d="M95 -21l-9 28q114 39 171 111t82 172q-60 -51 -128 -51q-75 0 -123 54.5t-48 133.5q0 87 57 150.5t147 63.5q92 0 144 -68t52 -175q0 -91 -30.5 -167.5t-81 -127t-110 -82t-123.5 -42.5zM351 411q0 32 -5 63t-17 63.5t-36.5 52.5t-59.5 20q-51 0 -77.5 -46.5
t-26.5 -112.5q0 -103 58 -145q29 -21 64 -21q41 0 68 20q24 17 28 48q4 30 4 58z" />
    <glyph glyph-name="colon" unicode=":" horiz-adv-x="316" 
d="M157 -11q-22 0 -41 16.5t-19 46.5q0 28 17.5 46t43.5 18q27 0 44.5 -18t17.5 -45q0 -31 -20 -47.5t-43 -16.5zM157 297q-22 0 -41 16t-19 46q0 28 17.5 46.5t43.5 18.5q28 0 45 -18t17 -46q0 -31 -20 -47t-43 -16z" />
    <glyph glyph-name="semicolon" unicode=";" horiz-adv-x="317" 
d="M157 297q-22 0 -41 16t-19 46q0 28 17.5 46.5t43.5 18.5q28 0 45 -18t17 -46q0 -31 -20 -47t-43 -16zM74 -151l-11 25q52 27 80.5 59t28.5 58q0 18 -14.5 30t-55.5 19q-12 2 -12 30q0 21 14.5 37t45.5 16q30 0 55 -24.5t25 -73.5q0 -37 -18.5 -70t-46 -54t-50.5 -34
t-41 -18z" />
    <glyph glyph-name="less" unicode="&#x3c;" horiz-adv-x="636" 
d="M551 51v-69l-467 228v58l467 227v-68l-394 -184z" />
    <glyph glyph-name="equal" unicode="=" horiz-adv-x="636" 
d="M562 370v-60h-487v60h487zM562 166v-58h-487v58h487z" />
    <glyph glyph-name="greater" unicode="&#x3e;" horiz-adv-x="636" 
d="M84 428v67l467 -227v-58l-467 -228v70l395 184z" />
    <glyph glyph-name="question" unicode="?" horiz-adv-x="427" 
d="M221 206h-27q-30 58 -30 99q0 25 33 51q12 9 27 18.5t35.5 21.5t34.5 21q29 19 29 57q0 46 -23.5 83t-59.5 37q-19 0 -43 -17q-4 -3 -12 -9.5t-12 -9.5t-10 -6t-11 -3q-25 0 -38 16.5t-13 35.5q0 30 25.5 45t54.5 15q78 0 132 -63t54 -147q0 -87 -39 -115q-9 -8 -90 -58
q-19 -11 -19 -26q0 -14 2 -46zM215 -11q-23 0 -42 16t-19 46q0 29 17 47.5t45 18.5q27 0 44.5 -18.5t17.5 -46.5q0 -30 -20 -46.5t-43 -16.5z" />
    <glyph glyph-name="at" unicode="@" horiz-adv-x="894" 
d="M651 -89l14 -28q-110 -83 -265 -83q-139 0 -237 90t-98 250q0 128 61.5 233t165 163.5t224.5 58.5q146 0 232.5 -83.5t86.5 -201.5q0 -132 -85 -216t-193 -84q-79 0 -54 92q5 24 22 82q-41 -76 -108 -134q-48 -38 -91 -38q-24 0 -41 19.5t-17 56.5q0 66 33 137.5
t83 121.5q57 55 119 55q53 0 71 -41l14 41h63q-57 -180 -80 -272q-13 -49 -9 -65.5t31 -16.5q71 0 132 70.5t61 188.5q0 115 -77.5 182.5t-197.5 67.5q-168 0 -274 -120.5t-106 -293.5q0 -128 73.5 -214t215.5 -86q135 0 231 68zM561 332q-12 36 -56 36q-47 0 -92 -68
q-32 -46 -53.5 -103.5t-21.5 -100.5q0 -36 25 -36q33 0 85 56t83 130q23 51 30 86z" />
    <glyph glyph-name="A" unicode="A" horiz-adv-x="675" 
d="M-6 0v30q54 6 75 17.5t37 51.5q104 265 194 502q7 19 5 44h72q2 -8 8 -24q27 -70 71 -189.5t82.5 -225t44.5 -121.5q12 -30 32 -40.5t65 -14.5v-30h-265v30q36 4 51 8q28 6 18 36q-31 92 -58 162h-224q-41 -111 -52 -145q-7 -27 -0.5 -38t28.5 -15q35 -6 53 -8v-30h-237z
M214 273h200l-98 277q-63 -167 -102 -277z" />
    <glyph glyph-name="B" unicode="B" horiz-adv-x="638" 
d="M221 329v-221q0 -47 13 -57q27 -19 81 -19q28 0 55 8t51 25t39 48t15 72q0 144 -185 144h-69zM221 573v-210h69q151 0 151 127q0 123 -144 123q-58 0 -69 -13q-7 -9 -7 -27zM34 0v30q58 4 76 15t18 46v463q0 34 -18.5 45.5t-75.5 15.5v30h270q98 0 144 -17
q91 -35 91 -126q0 -68 -45 -104.5t-102 -46.5q185 -25 185 -158q0 -93 -73 -143t-191 -50h-279z" />
    <glyph glyph-name="C" unicode="C" horiz-adv-x="691" 
d="M627 455l-28 -8q-45 115 -103 150q-43 28 -104 28q-108 0 -168.5 -78t-60.5 -217q0 -134 62.5 -220.5t182.5 -86.5q34 0 64 11q67 26 138 141l27 -14q-26 -52 -73 -157q-10 -1 -47 -8q-65 -12 -113 -12q-156 0 -252 91t-96 251q0 77 30 146.5t90 116.5q92 72 221 72
q82 0 150 -29q23 9 37 21h20q0 -69 23 -198z" />
    <glyph glyph-name="D" unicode="D" horiz-adv-x="722" 
d="M221 553v-419q0 -66 9 -73q29 -28 103 -28q100 0 161 78q68 82 68 217q0 162 -97 237q-61 48 -152 48q-71 0 -84 -14q-8 -8 -8 -46zM34 0v30q58 3 76 15t18 46v463q0 33 -19 45.5t-75 15.5v30h283q126 0 202 -40q73 -38 110.5 -108.5t37.5 -158.5q0 -143 -93 -236
q-45 -47 -113.5 -74.5t-146.5 -27.5h-280z" />
    <glyph glyph-name="E" unicode="E" horiz-adv-x="627" 
d="M401 0h-377v30q66 3 85 14t19 47v463q0 37 -19 47t-75 14v30h358q99 0 131 6q4 -75 26 -171l-27 -8q-49 105 -92 129q-16 9 -62 9h-117q-19 0 -24.5 -8t-5.5 -33v-221h100q45 0 60 22t25 85h29q0 -4 -2 -51t-2 -73q0 -49 4 -129h-30q-14 73 -26 88q-15 21 -58 21h-100
v-204q0 -47 15.5 -59.5t69.5 -12.5h71q41 0 57 3t34 14q49 31 107 143l28 -10q-35 -86 -58 -189q-76 4 -144 4z" />
    <glyph glyph-name="F" unicode="F" horiz-adv-x="599" 
d="M323 0h-289v30q59 5 76.5 16t17.5 45v463q0 37 -18.5 47t-75.5 14v30h390q70 0 112 6q-3 -49 24 -177l-28 -8q-44 103 -83 130q-22 14 -59 14h-138q-19 0 -25 -7.5t-6 -32.5v-234h115q31 0 48.5 14.5t21.5 29t11 54.5q1 7 2 10h30q0 -3 -2 -44.5t-2 -75.5q0 -38 2 -85
t2 -48h-30q-7 37 -10 49.5t-12 30.5t-23 23t-38 5h-115v-208q0 -34 19 -46t83 -15v-30z" />
    <glyph glyph-name="G" unicode="G" horiz-adv-x="724" 
d="M676 299v-31q-16 0 -41 -5q-32 -8 -32 -44v-151q0 -10 6.5 -14t27.5 -9v-21q-120 -40 -231 -40q-171 0 -264 98q-87 90 -87 245q0 170 128 267q89 67 218 67q77 0 157 -29q11 5 32 20h22q1 -36 9.5 -102t15.5 -96l-28 -8q-24 60 -48.5 96t-61.5 58q-43 26 -107 26
q-99 0 -164.5 -70.5t-65.5 -224.5q0 -151 78 -239q67 -74 169 -74q45 0 71 12q28 12 28 47v139q0 35 -35 44q-23 6 -69 9v30h272z" />
    <glyph glyph-name="H" unicode="H" horiz-adv-x="759" 
d="M315 0h-281v30q57 4 75.5 15t18.5 46v463q0 36 -19 47t-75 14v30h281v-30q-56 -3 -75 -14.5t-19 -46.5v-199h317v199q0 35 -20 46.5t-74 14.5v30h281v-30q-22 -1 -33 -2.5t-25 -5t-20.5 -9.5t-11 -17t-4.5 -27v-463q0 -32 18 -45t76 -16v-30h-281v30q55 3 74.5 13.5
t19.5 47.5v227h-317v-227q0 -36 20 -46.5t74 -14.5v-30z" />
    <glyph glyph-name="I" unicode="I" horiz-adv-x="349" 
d="M315 0h-281v30q56 3 75 13.5t19 47.5v463q0 16 -5 26.5t-9 16t-20 10t-21 5t-30 2.5q-6 1 -9 1v30h281v-30q-52 -3 -73 -14t-21 -47v-463q0 -35 19 -46t75 -15v-30z" />
    <glyph glyph-name="J" unicode="J" horiz-adv-x="368" 
d="M61 615v30h280v-30q-48 -2 -67.5 -14.5t-19.5 -46.5v-402q0 -75 -16 -132q-22 -74 -82 -137q-30 -32 -70.5 -52.5t-67.5 -20.5q-32 0 -58.5 15t-26.5 37q0 21 18 40t34 19q13 0 40 -26q28 -27 51 -27q25 0 50 29q35 42 35 143v514q0 37 -20.5 47t-79.5 14z" />
    <glyph glyph-name="K" unicode="K" horiz-adv-x="693" 
d="M315 0h-281v30q56 4 75 14.5t19 46.5v463q0 35 -19.5 46t-74.5 15v30h281v-30q-56 -3 -75 -15t-19 -46v-236q52 40 116 104t114 125q25 30 25 45q0 9 -18 14t-58 9v30h249v-30q-55 -4 -85 -20t-72 -60q-30 -32 -85 -87t-74 -75q-4 -4 1 -10q11 -17 107 -127.5t136 -152.5
q47 -47 126 -53v-30h-280v30q41 6 44 7q20 5 7 26q-15 20 -99 119.5t-107 124.5q-5 5 -10 0l-37 -29v-187q0 -36 19 -46.5t75 -14.5v-30z" />
    <glyph glyph-name="L" unicode="L" horiz-adv-x="616" 
d="M363 0h-338v30q65 5 84 15.5t19 45.5v463q0 34 -18.5 45.5t-75.5 15.5v30h281v-30q-54 -2 -74 -14t-20 -47v-452q0 -39 13.5 -53t58.5 -14h80q49 0 77 18q51 31 114 151l28 -11q-38 -91 -64 -196q-66 3 -165 3z" />
    <glyph glyph-name="M" unicode="M" horiz-adv-x="892" 
d="M275 0h-250v30q56 5 72.5 21t18.5 68q6 146 12 448q1 25 -15.5 32.5t-84.5 15.5v30h184q198 -414 240 -506q15 33 111.5 243t120.5 263h175v-30q-53 -2 -73 -13.5t-20 -47.5v-463q0 -10 2 -18t4 -14t8 -10t10 -6.5t14 -4.5l15 -3t19.5 -2.5t20.5 -2.5v-30h-281v30
q28 3 37 4t25 5t20.5 10t9 17t4.5 27q0 36 2 232t1 223q-221 -494 -244 -548h-27q-22 59 -243 551q-4 -170 -1 -435q1 -52 23.5 -66t89.5 -20v-30z" />
    <glyph glyph-name="N" unicode="N" horiz-adv-x="741" 
d="M281 0h-252v30q61 5 80.5 25t19.5 84v399q0 25 -18 43q-17 17 -33.5 23t-58.5 11v30h163l398 -513v367q0 71 -18.5 90t-94.5 26v30h251v-30q-62 -4 -80 -26.5t-18 -88.5v-401q0 -76 3 -102h-65q-25 37 -63 87l-325 433v-378q0 -65 20.5 -84t90.5 -25v-30z" />
    <glyph glyph-name="O" unicode="O" horiz-adv-x="740" 
d="M373 -16q-123 0 -214 81q-103 97 -103 257q0 89 32.5 159.5t88.5 114.5q84 65 189 65q138 0 228 -90t90 -243q0 -130 -71 -225q-42 -56 -103.5 -87.5t-136.5 -31.5zM385 20q60 0 102 33q90 71 90 261q0 157 -76 248q-54 63 -137 63q-65 0 -106 -33q-95 -70 -95 -247
q0 -149 65 -240q61 -85 157 -85z" />
    <glyph glyph-name="P" unicode="P" horiz-adv-x="611" 
d="M221 578v-278q0 -8 7 -12q11 -5 49 -5q178 0 178 173q0 157 -161 157q-38 0 -56 -6q-17 -6 -17 -29zM324 0h-290v30q56 4 75 14.5t19 46.5v463q0 16 -4.5 26.5t-9 16.5t-20.5 9.5t-24.5 5t-35.5 3.5v30h264q111 0 166 -28q93 -47 93 -153q0 -95 -66 -151
q-72 -63 -214 -63q-27 0 -56 3v-162q0 -34 19 -45t84 -16v-30z" />
    <glyph glyph-name="Q" unicode="Q" horiz-adv-x="740" 
d="M855 -145l-5 -31q-82 -20 -170 -20q-76 0 -146 48q-45 30 -149 110q-32 23 -88 35q-66 14 -119 54q-122 91 -122 271q0 175 117 270q85 69 198 69q133 0 223 -90t90 -248q0 -140 -85 -236q-51 -58 -117 -83q80 -71 148 -112q57 -35 113 -42q51 -5 112 5zM365 625
q-62 0 -109 -35q-93 -71 -93 -244q0 -201 108 -286q55 -43 124 -43q45 0 85 26q97 63 97 269q0 161 -74 247q-59 66 -138 66z" />
    <glyph glyph-name="R" unicode="R" horiz-adv-x="651" 
d="M221 566v-236h51q174 0 174 148q0 136 -147 136q-54 0 -69 -12q-9 -8 -9 -36zM315 0h-281v30q57 5 73 15q21 14 21 46v463q0 20 -5.5 31.5t-20 17.5t-27.5 8t-41 4v30h267q110 0 159 -24q84 -40 84 -136q0 -126 -146 -166q22 -38 83.5 -129.5t92.5 -124.5q31 -32 90 -35
v-30q-23 -1 -99 -1q-31 0 -52 8t-39 33q-62 84 -140 222q-14 24 -24.5 31t-33.5 7h-55v-209q0 -35 23.5 -46.5t70.5 -14.5v-30z" />
    <glyph glyph-name="S" unicode="S" horiz-adv-x="543" 
d="M57 198l30 7q35 -110 100 -158q38 -26 84 -26q58 0 90 33t32 82q0 48 -29 81t-103 65q-103 45 -141.5 91t-38.5 116q0 68 51.5 120t146.5 52q67 0 125 -28q4 2 29 20h21q-2 -53 23 -198l-28 -7q-18 51 -45 93t-53 60q-35 24 -76 24q-53 0 -81.5 -31t-28.5 -77
q0 -51 27 -81.5t106 -63.5q106 -44 145.5 -90t39.5 -117q0 -76 -59 -128t-155 -52q-47 0 -123 20q-21 6 -56 -2q-7 81 -33 195z" />
    <glyph glyph-name="T" unicode="T" horiz-adv-x="681" 
d="M491 0h-301v30q64 4 84 14t20 47v519h-96q-32 0 -53 -15q-43 -33 -82 -128l-27 7q23 121 24 181q50 -10 116 -10h330q66 0 116 10q1 -60 24 -181l-27 -7q-40 95 -83 128q-20 15 -52 15h-97v-519q0 -36 19 -45.5t85 -15.5v-30z" />
    <glyph glyph-name="U" unicode="U" horiz-adv-x="724" 
d="M24 615v30h281v-30q-55 -2 -74.5 -14t-19.5 -47v-337q0 -57 13 -87q19 -44 62 -69.5t105 -25.5q75 0 114.5 30t55.5 91q7 26 7 79v274q0 66 -17.5 82.5t-87.5 23.5v30h246v-30q-63 -6 -79 -25.5t-16 -80.5v-259q0 -60 -11 -100q-41 -166 -237 -166q-104 0 -162.5 44.5
t-76.5 111.5q-9 33 -9 96v318q0 34 -19 45.5t-75 15.5z" />
    <glyph glyph-name="V" unicode="V" horiz-adv-x="656" 
d="M-5 615v30h276v-30q-32 -2 -55 -7q-21 -4 -26.5 -12t0.5 -33q14 -44 48 -140.5t68.5 -190.5t38.5 -107q138 322 171 421q9 34 2 45t-36 17q-19 4 -56 7v30h240v-30q-50 -7 -67 -19t-38 -56q-28 -62 -119.5 -278.5t-112.5 -276.5h-35q-17 61 -97.5 287.5t-103.5 284.5
q-13 33 -32 43.5t-66 14.5z" />
    <glyph glyph-name="W" unicode="W" horiz-adv-x="960" 
d="M-2 615v30h273v-30q-9 -1 -28.5 -3.5t-31.5 -4.5q-33 -7 -24 -45q36 -144 121 -427q13 34 72.5 182.5t79.5 200.5q3 8 0 22q-12 48 -27 58.5t-72 16.5v30h264v-30q-40 -5 -59 -9q-30 -6 -18 -46q14 -44 66.5 -199.5t73.5 -221.5q75 201 131 378q14 49 14 61
q-1 17 -23.5 24t-77.5 13v30h248v-30q-52 -7 -72.5 -21.5t-36.5 -57.5q-121 -327 -195 -549h-36q-32 114 -159 486q-30 -77 -102.5 -259t-89.5 -227h-35q-42 171 -161 563q-12 37 -29 49t-66 16z" />
    <glyph glyph-name="X" unicode="X" horiz-adv-x="642" 
d="M0 0v30q47 4 73 14.5t48 40.5q98 140 156 231q-119 204 -143 240t-42.5 46t-65.5 13v30h265v-30q-42 -5 -48 -6q-28 -5 -16 -27q64 -116 113 -194q78 108 117 180q19 33 -13 39q-21 5 -56 8v30h233v-30q-51 -5 -76.5 -18t-51.5 -50q-122 -175 -134 -192
q144 -239 163 -270t40 -40.5t69 -14.5v-30h-281v30q40 3 58 8q28 7 11 35q-81 144 -120 209q-90 -135 -126 -200q-10 -24 -5.5 -32.5t24.5 -11.5q47 -7 59 -8v-30h-251z" />
    <glyph glyph-name="Y" unicode="Y" horiz-adv-x="609" 
d="M447 0h-281v30q62 4 78.5 15.5t16.5 45.5v146q0 22 -9 40q-28 61 -156 282q-19 32 -37 41t-61 15v30h259v-29q-41 -5 -54 -8q-24 -6 -13 -27q7 -14 147 -272q73 130 132 253q20 37 -14 44q-27 6 -66 9v30h229v-30q-50 -4 -71 -18t-43 -55q-107 -192 -143 -264
q-7 -14 -7 -41v-146q0 -37 17.5 -47t75.5 -14v-30z" />
    <glyph glyph-name="Z" unicode="Z" horiz-adv-x="630" 
d="M387 0h-347v22q44 52 213.5 300.5t190.5 287.5h-221q-43 0 -64 -15q-40 -25 -96 -140l-29 10q35 114 45 190q54 -10 129 -10h251q59 0 103 2v-21q-18 -27 -399 -591h213q53 0 84 19q52 33 114 141l28 -12q-42 -94 -65 -189q-75 6 -150 6z" />
    <glyph glyph-name="bracketleft" unicode="[" horiz-adv-x="351" 
d="M155 650v-742q0 -16 5 -21t18 -5h118v-35h-212q2 33 2 171v521q0 123 -2 169h212v-35h-119q-15 0 -18.5 -3.5t-3.5 -19.5z" />
    <glyph glyph-name="backslash" unicode="\" horiz-adv-x="453" 
d="M335 -73l-266 757h50l265 -757h-49z" />
    <glyph glyph-name="bracketright" unicode="]" horiz-adv-x="351" 
d="M196 -95v743q0 16 -4 20.5t-17 4.5h-120v35h212q-2 -66 -2 -171v-521q0 -121 2 -169h-212v35h121q14 0 17 3.5t3 19.5z" />
    <glyph glyph-name="asciicircum" unicode="^" horiz-adv-x="516" 
d="M112 276h-62l173 361h61l183 -361h-63l-152 307z" />
    <glyph glyph-name="underscore" unicode="_" horiz-adv-x="492" 
d="M0 -123h492v-49h-492v49z" />
    <glyph glyph-name="grave" unicode="`" 
d="M240 530l-21 -13l-153 151l3 13q13 5 49 11t43 4z" />
    <glyph glyph-name="a" unicode="a" horiz-adv-x="447" 
d="M429 60v-27q-21 -24 -48.5 -36t-44.5 -12q-46 0 -61 59q-75 -59 -127 -59q-37 0 -66 31.5t-29 77.5q0 34 17 54t54 39q50 25 155 69q0 75 -1 82q-3 22 -26.5 46t-57.5 24q-9 0 -28 -9t-33 -20q-11 -8 -11 -14q0 -5 3 -11q14 -23 14 -38q0 -14 -16 -30t-36 -16
q-17 0 -31 14.5t-14 36.5q0 27 44 59q51 37 92 56.5t58 19.5q68 0 104 -62q17 -26 17 -88q0 -20 -1.5 -117.5t-1.5 -127.5q0 -19 24 -19q22 0 51 18zM278 228q-83 -36 -101 -48q-21 -14 -31 -27.5t-10 -37.5q0 -36 24 -60q16 -16 41 -16q32 0 56 20q17 17 18 41q3 60 3 128z
" />
    <glyph glyph-name="b" unicode="b" horiz-adv-x="531" 
d="M88 -4l-11 9q3 54 3 159v398q0 44 -3 59q-4 23 -60 39v25q74 5 147 30l4 -2q-5 -40 -5 -98v-204q64 45 136 45q77 0 129 -56q61 -64 61 -161q0 -121 -82 -193q-66 -58 -150 -58q-63 0 -127 27q-1 0 -42 -19zM163 323v-155q0 -66 15 -93q30 -53 91 -53q47 0 76 29
q49 50 49 170q0 81 -36 137q-36 52 -102 52q-33 0 -58 -12q-20 -9 -27.5 -25t-7.5 -50z" />
    <glyph glyph-name="c" unicode="c" horiz-adv-x="448" 
d="M411 104l16 -19q-66 -97 -175 -97q-97 0 -156 66q-55 63 -55 162q0 114 92 190q61 50 148 50q67 0 101.5 -23t34.5 -48q0 -19 -14 -34.5t-33 -15.5t-40 24q-7 8 -19 27.5t-18 25.5q-8 10 -38 10q-34 0 -64 -23q-56 -44 -56 -161q0 -91 41 -146q40 -52 101 -52
q82 0 134 64z" />
    <glyph glyph-name="d" unicode="d" horiz-adv-x="536" 
d="M368 116v195q0 39 -4.5 53.5t-18.5 28.5q-30 30 -81 30q-50 0 -80 -30q-47 -47 -47 -161q0 -106 45 -158q36 -42 91 -42q41 0 67 17q28 19 28 67zM515 35v-29q-103 -10 -137 -19l-5 3q-5 20 -5 44q-72 -46 -140 -46q-77 0 -128 59q-59 64 -59 165q0 127 100 199
q65 45 146 45q39 0 81 -10q0 171 -3 179q-8 21 -74 35v27q100 4 159 27l5 -2q-5 -55 -5 -84v-528q0 -43 9 -49q18 -14 56 -16z" />
    <glyph glyph-name="e" unicode="e" horiz-adv-x="463" 
d="M406 105l18 -19q-65 -98 -182 -98q-48 0 -89.5 21t-66.5 56q-45 64 -45 151q0 65 26.5 118.5t70.5 85.5q48 36 115 36q82 0 127 -51t45 -115q0 -38 -9 -39q-27 -3 -283 -3q-1 -8 -1 -17q0 -102 47 -152q39 -40 98 -40q76 0 129 66zM135 278q122 0 175 3q19 1 24.5 9
t5.5 27q0 38 -24.5 73.5t-72.5 35.5q-41 0 -71.5 -37t-36.5 -111z" />
    <glyph glyph-name="f" unicode="f" horiz-adv-x="285" 
d="M264 0h-241v30q43 2 56 10t13 33v322h-62v24q43 14 62 29q6 155 100 228q51 39 108 39q30 0 54 -11.5t24 -34.5q0 -21 -16 -35.5t-35 -14.5q-17 0 -36 18l-28 24q-9 6 -23 6q-24 0 -45 -33t-21 -100v-90h113q4 -27 -7 -49h-106v-319q0 -25 15 -33.5t75 -12.5v-30z" />
    <glyph glyph-name="g" unicode="g" horiz-adv-x="484" 
d="M241 -197q80 0 128 34.5t48 80.5q0 61 -93 61q-129 0 -150 -3q-28 -4 -45 -22q-33 -36 -33 -66q0 -39 39 -61q40 -24 106 -24zM217 427q-26 0 -48 -22q-29 -31 -29 -100q0 -58 19 -92q22 -42 74 -42q35 0 55 26q25 35 25 100q0 61 -24 95.5t-72 34.5zM228 456
q55 0 101 -25q64 40 109 40q25 0 39.5 -11.5t14.5 -26.5q0 -22 -13 -34.5t-26 -12.5q-8 0 -23 15q-5 4 -11 9.5t-9.5 8.5t-7.5 6t-7 4.5t-6 1.5q-13 0 -35 -18q45 -51 45 -111t-38 -105q-50 -56 -135 -56q-45 0 -71 10q-31 -31 -31 -58q0 -17 18.5 -25.5t38.5 -8.5
q11 0 51 1t79 1q93 0 130 -47q24 -29 24 -68q0 -77 -79 -137q-78 -55 -193 -55q-61 0 -106 21q-57 30 -57 82q0 51 90 121q-61 32 -61 76q0 24 22 54t54 53q-39 19 -60.5 55t-21.5 79q0 71 51 117q49 44 124 44z" />
    <glyph glyph-name="h" unicode="h" horiz-adv-x="536" 
d="M239 0h-214v30q39 4 50.5 10.5t11.5 27.5v502q0 39 -4 55q-8 22 -59 35v25q80 6 147 31l4 -2q-5 -42 -5 -86v-236q62 64 139 64q60 0 96 -36q43 -44 43 -122v-229q0 -24 10 -30.5t51 -8.5v-30h-219v30q37 4 48 6q19 5 23.5 20.5t4.5 81.5v166q0 48 -28 76q-24 23 -66 23
q-54 0 -83 -27q-13 -14 -16 -25t-3 -43v-239q0 -24 11.5 -29t57.5 -10v-30z" />
    <glyph glyph-name="i" unicode="i" horiz-adv-x="262" 
d="M235 0h-214v30q48 4 59 9.5t11 29.5v231q0 38 -2.5 49.5t-10.5 18.5q-15 13 -42 27v19q78 13 134 42l6 -5q-2 -32 -2 -92v-289q0 -23 10 -29.5t51 -10.5v-30zM69 605q0 21 14.5 39.5t40.5 18.5q23 0 37.5 -17.5t14.5 -40.5q0 -24 -14.5 -40t-38.5 -16q-25 0 -39.5 17
t-14.5 39z" />
    <glyph glyph-name="j" unicode="j" horiz-adv-x="254" 
d="M24 389v24q74 10 148 43l6 -5q-4 -50 -4 -101v-289q0 -113 -21 -157q-25 -52 -65.5 -92.5t-65.5 -54.5l-20 22q57 52 73.5 95.5t16.5 107.5v355q0 21 -13 30q-23 17 -55 22zM73 606q0 21 14.5 39t40.5 18q22 0 37 -17t15 -40q0 -24 -15 -40.5t-38 -16.5q-25 0 -39.5 17.5
t-14.5 39.5z" />
    <glyph glyph-name="k" unicode="k" horiz-adv-x="500" 
d="M239 0h-214v30q41 3 51.5 10t10.5 31v499q0 40 -5 53q-3 8 -18.5 19t-40.5 18v25q75 5 148 31l4 -2q-5 -42 -5 -92v-391q60 43 144 129q23 24 23 35q0 8 -17 12q-19 5 -50 7v30h211v-30q-18 -1 -37 -5q-30 -6 -67 -36q-57 -48 -108 -99q-3 -4 0 -7q18 -26 75 -96.5
t87 -104.5q17 -19 34.5 -26.5t52.5 -9.5v-30h-230v30q52 4 52 15q0 3 -12 23q-25 37 -116 152q-4 6 -9 2q-21 -12 -33 -24v-129q0 -21 11.5 -28t57.5 -11v-30z" />
    <glyph glyph-name="l" unicode="l" horiz-adv-x="257" 
d="M234 0h-209v30q42 3 52 11.5t10 34.5v493q0 43 -4 54q-2 8 -18 19.5t-43 17.5v25q70 4 149 31l4 -3q-5 -40 -5 -93v-546q0 -25 11 -33.5t53 -11.5v-29z" />
    <glyph glyph-name="m" unicode="m" horiz-adv-x="816" 
d="M243 0h-220v30q45 3 57 11.5t12 34.5v233q0 43 -6 49q-23 25 -49 35v20q53 9 132 43l8 -5q-3 -54 -3 -63q63 68 143 68q89 0 124 -76q66 76 151 76q75 0 109 -56q27 -41 27 -106v-220q0 -27 10 -33.5t51 -10.5v-30h-214v30q48 4 58.5 11.5t11.5 43.5q1 15 1 59v153
q0 59 -30 86q-23 20 -62 20q-45 0 -78 -27q-15 -14 -20 -28.5t-5 -47.5v-227q0 -26 12 -33.5t54 -9.5v-30h-219v30q45 2 58 10t13 35v231q0 49 -26 76q-22 22 -63 22q-55 0 -86 -34q-13 -12 -16.5 -26t-3.5 -58v-211q0 -28 10.5 -34.5t58.5 -10.5v-30z" />
    <glyph glyph-name="n" unicode="n" horiz-adv-x="541" 
d="M240 0h-217v30q45 2 57 10t12 35v229q0 44 -3 54q-5 18 -52 34v21q66 12 133 43l7 -4q-3 -45 -3 -64q67 68 144 68q56 0 92 -36q43 -42 43 -124v-221q0 -27 10.5 -34.5t50.5 -10.5v-30h-219v30q4 0 10 1q40 4 50.5 9.5t13.5 26.5q2 22 2 47v187q0 52 -27 79
q-23 23 -70 23q-46 0 -77 -29q-15 -15 -19 -27t-4 -45v-227q0 -27 11.5 -34.5t54.5 -10.5v-30z" />
    <glyph glyph-name="o" unicode="o" horiz-adv-x="528" 
d="M268 456q98 0 160 -68q59 -66 59 -162q0 -103 -67 -173q-65 -65 -152 -65q-100 0 -161 64q-66 68 -66 171q0 123 98 193q57 40 129 40zM272 22q58 0 84 41q35 51 35 155q0 101 -43 159q-37 47 -90 47q-55 0 -88 -45t-33 -142q0 -110 45 -170q36 -45 90 -45z" />
    <glyph glyph-name="p" unicode="p" horiz-adv-x="538" 
d="M259 -232h-250v30q51 2 63 11.5t14 43.5q2 46 2 143v305q0 47 -7 59q-3 7 -20 17.5t-34 15.5v20q70 12 138 48l9 -6q0 -4 -2.5 -25.5t-2.5 -32.5q73 55 144 55q69 0 119 -50q64 -61 64 -166q0 -107 -71 -180q-68 -68 -165 -68q-42 0 -90 13q0 -129 1 -149q2 -33 15 -42
t73 -12v-30zM170 294v-157q0 -47 9 -61q16 -25 44 -39.5t54 -14.5q54 0 88 50q36 51 36 145q0 90 -34 137q-34 50 -93 50q-41 0 -68 -16q-22 -13 -29 -31t-7 -63z" />
    <glyph glyph-name="q" unicode="q" horiz-adv-x="531" 
d="M519 -232h-239v29q64 6 75 14t12 30q1 17 1 188q-67 -42 -133 -42q-31 0 -66.5 14.5t-61.5 40.5q-66 66 -66 167q0 121 85 190q69 56 164 56q66 0 110 -21q31 9 44 18l12 -4q-6 -60 -6 -173v-228q0 -164 1 -203q1 -30 11.5 -36.5t56.5 -9.5v-30zM368 117v155q0 52 -7 83
q-5 29 -43 51q-25 14 -62 14q-47 0 -76 -30q-44 -44 -44 -152q0 -92 37 -148q41 -58 107 -58q38 0 60 12q11 7 15.5 12.5t8.5 20t4 40.5z" />
    <glyph glyph-name="r" unicode="r" horiz-adv-x="362" 
d="M264 0h-241v30q48 3 58.5 10t10.5 36v223q0 38 -1.5 49.5t-8.5 17.5q-18 16 -47 27v20q26 4 70 18t65 25l8 -4q-5 -29 -7 -73q77 77 135 77q27 0 42 -13.5t15 -34.5q0 -26 -17.5 -43t-34.5 -17q-14 0 -28 14q-15 16 -28 26q-8 6 -16 6q-10 0 -25 -10t-25 -22
q-15 -21 -15 -56v-230q0 -28 12.5 -34.5t59.5 -10.5q11 0 18 -1v-30z" />
    <glyph glyph-name="s" unicode="s" horiz-adv-x="367" 
d="M330 312l-30 -7q-19 57 -54 92q-29 27 -68 27q-27 0 -45.5 -18.5t-18.5 -48.5q0 -32 19.5 -52.5t69.5 -43.5q70 -33 98.5 -64t28.5 -79q0 -57 -40.5 -93.5t-105.5 -36.5q-31 0 -89 14q-16 3 -39 -1q-5 53 -27 143l29 9q19 -68 64 -109q30 -25 67 -25q26 0 45.5 15.5
t19.5 52.5q0 30 -20 49.5t-80 50.5q-60 29 -85.5 61.5t-25.5 80.5q0 55 39.5 91t106.5 36q41 0 80 -15q14 3 22 10h16q7 -65 23 -139z" />
    <glyph glyph-name="t" unicode="t" horiz-adv-x="323" 
d="M301 67v-28q-45 -49 -108 -49q-44 0 -77 26.5t-33 91.5v287h-58v22q59 32 127 120h26q-8 -46 -10 -93h134q2 -8 0 -24.5t-6 -24.5h-131v-284q0 -33 17 -51t45 -18q41 0 74 25z" />
    <glyph glyph-name="u" unicode="u" horiz-adv-x="529" 
d="M506 37v-28q-122 -15 -141 -21l-5 5q-1 14 -1 54q-74 -59 -146 -59q-52 0 -90.5 37t-38.5 103v248q0 27 -60 39v29q109 0 148 9q-5 -75 -5 -115v-216q0 -33 27 -57t67 -24q46 0 73 19q25 19 25 63v251q0 9 -3 14.5t-21 13.5t-53 13l5 29q119 0 159 6q-5 -30 -5 -158v-221
q0 -21 14 -26q15 -6 51 -8z" />
    <glyph glyph-name="v" unicode="v" horiz-adv-x="464" 
d="M0 414v30h212v-30q-31 -2 -49 -7q-19 -6 -12 -26q12 -37 56 -156t44 -120q9 22 34 83t45 111t28 74q5 16 2 23t-16 10q-17 4 -56 8v30h182v-30q-32 -3 -44.5 -10.5t-23.5 -30.5q-105 -231 -164 -381h-30q-18 63 -141 381q-10 25 -21.5 31.5t-45.5 9.5z" />
    <glyph glyph-name="w" unicode="w" horiz-adv-x="725" 
d="M-1 414v30h216v-30q-44 -5 -55 -10.5t-6 -25.5q7 -29 21.5 -72.5t39.5 -115t29 -81.5q98 226 103 239q3 5 1 12q-8 26 -15 35.5t-20 12.5q-14 4 -40 6v30h207v-30q-60 -5 -60 -20q0 -5 9 -34q16 -45 52.5 -147t37.5 -105q67 171 97 263q9 29 -13 34q-24 6 -65 9v30h194
v-30q-26 -4 -34.5 -6t-19.5 -11.5t-20 -29.5q-22 -50 -75.5 -183t-74.5 -193h-30q-39 113 -113 315q-110 -248 -136 -314h-30q-50 168 -130 379q-10 26 -21 32t-49 11z" />
    <glyph glyph-name="x" unicode="x" horiz-adv-x="450" 
d="M180 0h-190v30q39 4 55 10t34 28q43 49 107 149q-75 128 -97 159q-15 22 -28 28t-54 10v30h206v-30q-20 -2 -32 -5q-15 -4 -7 -21q7 -14 32.5 -57.5t31.5 -54.5q55 79 70 106q11 22 -9 26q-9 2 -43 6v30h176v-30q-38 -3 -52 -11t-39 -39q-59 -77 -85 -114
q17 -27 57.5 -93t59.5 -94q12 -18 25.5 -23.5t50.5 -9.5v-30h-220v30q33 2 46 6q19 4 8 23q-35 62 -78 129q-67 -97 -82 -125q-11 -20 8 -25q13 -4 49 -8v-30z" />
    <glyph glyph-name="y" unicode="y" horiz-adv-x="476" 
d="M-7 414v30h218v-30q-35 -3 -45 -5q-23 -5 -14 -29q78 -207 112 -280q48 130 94 267q12 34 -14 40q-17 4 -55 7v30h180v-30q-22 -4 -31 -7t-19 -13t-18 -29q-36 -87 -122 -323q-12 -33 -30.5 -86.5t-21.5 -60.5q-28 -77 -55 -109t-65 -32q-22 0 -39.5 15.5t-17.5 36.5
q0 26 16.5 44.5t33.5 18.5q9 0 34 -20q13 -11 22 -11q11 0 25 31q15 35 41 121q-5 18 -69.5 177.5t-86.5 206.5q-8 17 -20 25.5t-19.5 9.5t-33.5 5z" />
    <glyph glyph-name="z" unicode="z" horiz-adv-x="434" 
d="M401 151l24 -12q-33 -65 -59 -142q-36 3 -103 3h-214v19q25 38 113.5 188.5t117.5 202.5h-104q-25 0 -40.5 -8.5t-33.5 -29.5q-25 -30 -50 -77l-25 10q36 102 42 151q54 -12 87 -12h226v-17q-30 -47 -114.5 -194.5t-112.5 -199.5h113q37 0 69 34q31 31 64 84z" />
    <glyph glyph-name="braceleft" unicode="{" horiz-adv-x="427" 
d="M30 262v33q80 1 109.5 36t29.5 104q0 29 -2 52t-2 54q0 76 56.5 119t146.5 49v-28q-71 -10 -98 -40t-27 -82q0 -26 2 -55.5t2 -56.5q0 -64 -38 -109t-97 -54v-3q61 -10 98 -55.5t37 -110.5q0 -30 -2.5 -63.5t-2.5 -64.5q0 -51 29.5 -80t96.5 -39v-29q-89 4 -146 47.5
t-57 119.5q0 31 2 62t2 61q-1 71 -30 101.5t-109 31.5z" />
    <glyph glyph-name="bar" unicode="|" horiz-adv-x="262" 
d="M98 738h66v-985h-66v985z" />
    <glyph glyph-name="braceright" unicode="}" horiz-adv-x="426" 
d="M398 295v-33q-81 0 -111 -35t-30 -104q0 -29 2 -57t2 -59q0 -76 -55.5 -119t-145.5 -49v29q71 13 97.5 41.5t26.5 79.5q0 26 -2 60.5t-2 61.5q0 63 38 108.5t96 55.5v3q-60 9 -97 54.5t-37 110.5q0 29 2 59t2 59q0 51 -28 79.5t-96 40.5v28q89 -3 145 -44.5t56 -117.5
q0 -31 -2 -59.5t-2 -59.5q0 -70 29.5 -101t111.5 -32z" />
    <glyph glyph-name="asciitilde" unicode="~" horiz-adv-x="636" 
d="M520 319l49 -24q-41 -118 -140 -118q-12 0 -23.5 2t-19.5 4t-20 7.5t-17 8t-18 10t-17 9.5q-2 1 -9.5 5.5t-10 5.5t-9 5t-10 5t-9.5 4t-10 4t-10.5 3t-11.5 3t-11 1.5t-12 0.5q-53 0 -93 -82l-47 26q20 56 58 86t88 30q47 0 107 -32q5 -3 18 -10l19.5 -10.5t18 -9.5
t19.5 -8.5t17.5 -5t17.5 -2.5q31 0 49.5 20t36.5 62z" />
    <glyph glyph-name="uni00A0" unicode="&#xa0;" horiz-adv-x="213" 
 />
    <glyph glyph-name="exclamdown" unicode="&#xa1;" horiz-adv-x="293" 
d="M112 251h25q5 -94 26.5 -230.5t21.5 -163.5q0 -30 -15.5 -49t-44.5 -19t-44 20t-15 49t20 165t26 228zM124 460q22 0 41 -16.5t19 -46.5q0 -27 -17.5 -46.5t-42.5 -19.5q-27 0 -44 19.5t-17 45.5q0 31 19 47.5t42 16.5z" />
    <glyph glyph-name="cent" unicode="&#xa2;" horiz-adv-x="482" 
d="M423 198l15 -20q-64 -87 -172 -91l-12 -97h-35l13 99q-70 9 -120.5 65t-50.5 150q0 91 65.5 155t161.5 68l11 88h33l-11 -89q49 -3 80 -19t31 -37t-12 -32.5t-24 -11.5q-15 0 -27 18q-2 3 -9 11.5t-10 11.5t-8.5 8t-12 8.5t-13.5 5.5l-44 -352q6 -1 18 -1q71 0 133 62z
M239 145l45 350h-12q-53 0 -88.5 -46t-35.5 -131q0 -137 91 -173z" />
    <glyph glyph-name="sterling" unicode="&#xa3;" horiz-adv-x="482" 
d="M349 309h-139q-16 -120 -69 -179q44 0 76 -10.5t74 -40.5q32 -22 47 -29t32 -7q19 0 35 15t16 32q0 11 -11 33.5t-11 32.5q0 14 14 29t36 15q13 0 21 -10t8 -27q0 -67 -51 -123t-115 -56q-47 0 -118 65q-48 43 -64 43q-13 0 -23 -17q-49 -79 -78 -79q-22 0 -22 23
q0 43 75 94q26 16 31 86q1 15 4 51t5 59h-96v36h99q1 10 3 32q5 49 17.5 92t36 83.5t63 64.5t91.5 24q56 0 86 -17.5t30 -40.5q0 -20 -15.5 -34.5t-31.5 -14.5q-19 0 -33 26q-25 44 -30 46q-8 4 -24 4q-49 0 -70.5 -57.5t-32.5 -193.5q0 -3 -0.5 -7t-0.5 -7h135v-36z" />
    <glyph glyph-name="currency" unicode="&#xa4;" horiz-adv-x="497" 
d="M249 450q-58 0 -89.5 -40t-31.5 -97t33 -96.5t88 -39.5q53 0 85.5 40.5t32.5 97.5q0 55 -32.5 95t-85.5 40zM48 141l61 58q-38 45 -38 116q0 60 39 111l-61 63l40 38l54 -63q43 35 106 35q67 0 106 -33l52 61l38 -38l-56 -62q15 -17 25.5 -49.5t10.5 -62.5
q0 -64 -37 -113l60 -61l-38 -41l-59 65q-43 -39 -102 -39q-66 0 -107 36l-54 -62z" />
    <glyph glyph-name="yen" unicode="&#xa5;" horiz-adv-x="482" 
d="M372 0h-265v30q54 4 64 7q15 4 20.5 12.5t5.5 26.5v102h-107v32h107v69h-107v32h106q-9 19 -119 233q-22 43 -54 48q-17 3 -31 4v30h226v-30q-22 -2 -47 -5q-18 -5 -12 -22q13 -30 55 -116t50 -102q96 201 96 202q13 31 -17 36q-31 5 -54 7v30h194v-30q-5 -1 -15.5 -3
t-16.5 -3q-20 -4 -31.5 -16.5t-28.5 -45.5q-70 -135 -108 -217h105v-32h-105v-69h105v-32h-105v-104q0 -30 27 -36q20 -4 62 -8v-30z" />
    <glyph glyph-name="brokenbar" unicode="&#xa6;" horiz-adv-x="262" 
d="M98 -172v344h66v-344h-66zM98 663h66v-343h-66v343z" />
    <glyph glyph-name="section" unicode="&#xa7;" horiz-adv-x="496" 
d="M253 619q-24 0 -37.5 -14t-13.5 -34q0 -29 14 -57q10 -20 29 -47.5t49 -70t53 -76.5q40 -62 56 -108.5t16 -97.5q0 -74 -47 -140q-37 -52 -86 -79.5t-94 -27.5t-82 20t-37 50q0 15 12 25t25 10q16 0 40 -30q19 -23 33.5 -31t39.5 -8q19 0 30.5 14t11.5 32q0 39 -22 80
q-35 65 -86 139q-57 85 -77.5 137.5t-20.5 105.5q0 100 70 176q62 65 145 65q53 0 84 -18.5t31 -46.5q0 -12 -9 -23t-22 -11q-15 0 -38 28q-31 38 -67 38zM313 -49q56 50 56 136q0 50 -17 96.5t-68 120.5q-74 109 -98 154.5t-24 87.5q0 24 5 38q-60 -58 -60 -146
q0 -84 90 -217q39 -58 60 -92.5t40.5 -86t15.5 -91.5z" />
    <glyph glyph-name="dieresis" unicode="&#xa8;" 
d="M109 658q21 0 34 -14.5t13 -35.5q0 -25 -14.5 -37.5t-34.5 -12.5q-17 0 -32 13.5t-15 35.5q0 21 13.5 36t35.5 15zM288 657q23 0 36 -15t13 -34q0 -20 -14 -35t-36 -15q-19 0 -33 14t-14 35q0 23 14 36.5t34 13.5z" />
    <glyph glyph-name="copyright" unicode="&#xa9;" horiz-adv-x="747" 
d="M360 630q133 0 220.5 -91t87.5 -222q0 -132 -88.5 -222.5t-219.5 -90.5q-137 0 -223.5 88.5t-86.5 224.5q0 132 90 222.5t220 90.5zM360 600q-116 0 -194.5 -80.5t-78.5 -201.5q0 -120 80.5 -201.5t192.5 -81.5q115 0 192.5 80t77.5 203q0 118 -79.5 200t-190.5 82z
M500 368l-21 -5q-21 69 -60 90q-22 13 -51 13q-52 1 -77.5 -40t-25.5 -102q0 -75 31.5 -111t84.5 -36q57 0 105 83l20 -9q-18 -36 -36 -90q-51 -15 -93 -15q-79 0 -133.5 46.5t-54.5 128.5q0 67 47.5 119t131.5 52q48 0 86 -19q13 10 14 11h19q5 -67 13 -116z" />
    <glyph glyph-name="ordfeminine" unicode="&#xaa;" horiz-adv-x="287" 
d="M279 288v-18q-10 -15 -28.5 -23.5t-30.5 -8.5q-13 0 -27 10.5t-19 29.5q-56 -40 -86 -40q-23 0 -40 21.5t-17 51.5q0 40 47 62q40 18 98 41v13.5v14v9.5q-7 40 -48 40q-7 0 -36 -17q-8 -7 -8 -10t4 -8q7 -11 9 -24q0 -7 -13 -16t-25 -9q-10 0 -19.5 12.5t-9.5 25.5
q0 11 29 31q67 45 93 45q44 0 69 -37q12 -19 12 -53q0 -12 -1 -65.5t-1 -71.5q0 -15 14 -15q19 0 34 9zM176 392q-40 -15 -63 -29t-23 -42q0 -16 9.5 -29t27.5 -13q16 0 28 8q19 12 19 31q2 50 2 74z" />
    <glyph glyph-name="guillemotleft" unicode="&#xab;" horiz-adv-x="629" 
d="M95 216v17q58 38 117 89.5t91 85.5l20 -16q-37 -61 -128 -162q81 -101 128 -177l-20 -19q-120 120 -208 182zM307 216v17q91 60 209 175l19 -16q-16 -25 -59 -79.5t-68 -82.5q65 -79 127 -177l-19 -19q-116 119 -209 182z" />
    <glyph glyph-name="logicalnot" unicode="&#xac;" horiz-adv-x="636" 
d="M499 65v248h-424v58h487v-306h-63z" />
    <glyph glyph-name="uni00AD" unicode="&#xad;" horiz-adv-x="328" 
d="M50 206v60h229v-60h-229z" />
    <glyph glyph-name="registered" unicode="&#xae;" horiz-adv-x="282" 
d="M157 477h-64v9q19 4 19 13v67q0 11 -19 13v10h64q20 0 32 -8t12 -22q0 -19 -26 -28q10 -20 18 -30q6 -9 23 -15v-9h-22q-15 0 -23 12q-2 4 -6.5 12.5t-6.5 11.5q-8 14 -14 14h-6v-28q0 -5 3.5 -7.5t15.5 -5.5v-9zM138 577v-41h6q27 0 27 21t-22 21q-7 0 -11 -1zM151 652
q51 0 86.5 -35t35.5 -86q0 -49 -34 -86.5t-90 -37.5q-50 0 -84.5 36t-34.5 88q0 48 35 84.5t86 36.5zM151 632q-42 0 -69 -28.5t-27 -72.5t27 -73t69 -29q43 0 70 28t27 74q0 43 -29 72t-68 29z" />
    <glyph glyph-name="macron" unicode="&#xaf;" 
d="M74 627h248v-54h-248v54z" />
    <glyph glyph-name="degree" unicode="&#xb0;" horiz-adv-x="324" 
d="M165 632q46 0 78 -31t32 -84q0 -52 -34.5 -83t-79.5 -31q-46 0 -78.5 31t-32.5 83q0 51 34.5 83t80.5 32zM161 596q-27 0 -46.5 -22.5t-19.5 -55.5q0 -35 20 -57t50 -22q25 0 44 21.5t19 56.5t-18.5 57t-48.5 22z" />
    <glyph glyph-name="plusminus" unicode="&#xb1;" horiz-adv-x="636" 
d="M290 403v219h59v-219h213v-59h-213v-226h-59v226h-215v59h215zM562 -10h-487v58h487v-58z" />
    <glyph glyph-name="twosuperior" unicode="&#xb2;" horiz-adv-x="348" 
d="M219 406h-182v25q92 84 118 115q55 66 55 123q0 30 -16.5 54t-55.5 24q-29 0 -51 -13.5t-45 -44.5l-16 15q54 97 142 97q46 0 79 -33t33 -84q0 -37 -15.5 -67.5t-55.5 -69.5q-44 -42 -99 -86q77 0 131 2q33 2 65 61l22 -7q-1 -3 -9.5 -29.5t-16 -51.5t-7.5 -31
q-23 1 -76 1z" />
    <glyph glyph-name="threesuperior" unicode="&#xb3;" horiz-adv-x="338" 
d="M108 592v22q30 9 44.5 14.5t32.5 23.5t18 43q0 23 -15.5 42t-48.5 19q-48 0 -88 -51l-15 15q47 81 127 81q49 0 77 -26t28 -63q0 -57 -72 -86q44 -9 71.5 -34t27.5 -63q0 -58 -45.5 -94.5t-108.5 -36.5q-42 0 -75.5 20t-33.5 43q0 16 12.5 25.5t27.5 9.5q10 0 16.5 -9.5
t13.5 -32.5q6 -18 19 -23q11 -5 28 -5q34 0 55.5 24.5t21.5 58.5q0 90 -118 83z" />
    <glyph glyph-name="acute" unicode="&#xb4;" 
d="M186 517l-23 15l102 163q6 2 37.5 -7t46.5 -16l-1 -11z" />
    <glyph glyph-name="uni00B5" unicode="&#xb5;" horiz-adv-x="530" 
d="M520 56v-27q-27 -41 -83 -41q-75 0 -75 104v21q-29 -125 -134 -125q-71 0 -90 57q1 -64 8.5 -141t7.5 -94q0 -56 -47 -56q-39 0 -39 55q0 15 6 96.5t6 162.5v376h83v-308q0 -96 74 -96q60 0 91 59.5t31 156.5v188h83v-351q0 -52 31 -52q26 0 47 15z" />
    <glyph glyph-name="paragraph" unicode="&#xb6;" horiz-adv-x="573" 
d="M494 611v-35q-9 -1 -24.5 -2.5t-27 -3t-19.5 -2.5q-21 -4 -28.5 -15t-7.5 -38q1 -269 1 -462q0 -68 -10 -117.5t-24.5 -76.5t-35.5 -43t-38.5 -20t-38.5 -4q-47 0 -75.5 22t-28.5 48q0 21 16 36.5t37 15.5q15 0 23.5 -9t16.5 -32q14 -39 40 -39q13 0 23.5 6.5t22 24.5
t17.5 59t6 102q0 66 -1 90q-125 12 -201 78.5t-76 175.5q0 94 58 155t159 79q34 7 103 7h113z" />
    <glyph glyph-name="periodcentered" unicode="&#xb7;" horiz-adv-x="284" 
d="M141 175q-24 0 -42 16t-18 46q0 29 17.5 47.5t43.5 18.5q27 0 44 -18.5t17 -46.5q0 -30 -19.5 -46.5t-42.5 -16.5z" />
    <glyph glyph-name="cedilla" unicode="&#xb8;" 
d="M207 5h32l-42 -49q92 -27 92 -96q0 -33 -29.5 -60.5t-72.5 -27.5q-32 0 -55 13t-23 31q0 10 10.5 20.5t24.5 11.5q9 0 30 -32q10 -17 28 -17q13 0 22.5 11t9.5 26q0 59 -107 64l-1 16z" />
    <glyph glyph-name="onesuperior" unicode="&#xb9;" horiz-adv-x="252" 
d="M231 406h-196v26q42 4 51.5 10.5t9.5 27.5v241q0 13 -11 20.5t-47 13.5v22q77 9 131 35v-333q0 -19 9.5 -25.5t52.5 -11.5v-26z" />
    <glyph glyph-name="ordmasculine" unicode="&#xba;" horiz-adv-x="340" 
d="M172 521q58 0 97 -38.5t39 -100.5q0 -63 -39.5 -103.5t-99.5 -40.5t-98.5 40.5t-38.5 104.5q0 59 41 98.5t99 39.5zM176 263q28 0 46.5 28t18.5 84q0 52 -18.5 87t-58.5 35q-29 0 -47 -27t-18 -83t19.5 -90t57.5 -34z" />
    <glyph glyph-name="guillemotright" unicode="&#xbb;" horiz-adv-x="629" 
d="M535 226v-17q-110 -73 -209 -175l-20 16q37 61 128 162q-81 101 -128 177l20 19q121 -121 209 -182zM322 226v-17q-91 -60 -209 -175l-18 16q15 24 57.5 78.5t68.5 83.5q-69 85 -126 177l18 19q116 -119 209 -182z" />
    <glyph glyph-name="onequarter" unicode="&#xbc;" horiz-adv-x="776" 
d="M624 661l-427 -677h-42l428 677h41zM250 245h-196v26q43 4 52.5 10.5t9.5 27.5v241q0 13 -11 20.5t-48 13.5v22q78 9 131 35v-333q0 -19 9.5 -25.5t52.5 -11.5v-26zM580 0v110h-170v23q27 44 107 146t97 116h35v-245q37 0 73 2q-9 -42 -9 -44q-28 2 -64 2v-110h-69z
M580 150v168q-95 -123 -122 -168h122z" />
    <glyph glyph-name="onehalf" unicode="&#xbd;" horiz-adv-x="833" 
d="M627 661l-426 -677h-43l428 677h41zM250 245h-196v26q42 4 52 10.5t10 27.5v241q0 13 -11 20.5t-48 13.5v22q78 9 131 35v-333q0 -19 9.5 -25.5t52.5 -11.5v-26zM670 0h-182v24q6 5 24.5 22.5t25 23.5t23.5 22t24 24t20 23t19 24.5t15 23.5t12.5 25.5t6.5 24.5t3 26
q0 30 -16.5 54t-55.5 24q-29 0 -51 -13.5t-45 -44.5l-16 15q55 97 142 97q46 0 79 -33t33 -84q0 -37 -15.5 -67.5t-55.5 -69.5q-44 -42 -99 -86q77 0 131 2q31 0 65 60l22 -6q-1 -3 -9.5 -29.5t-16 -51.5t-7.5 -31q-23 1 -76 1z" />
    <glyph glyph-name="threequarters" unicode="&#xbe;" horiz-adv-x="813" 
d="M659 661l-426 -677h-43l428 677h41zM616 0v110h-170v23q27 44 107 146t97 116h34v-245q38 0 74 2q-9 -42 -9 -44q-30 2 -65 2v-110h-68zM616 150v168q-86 -108 -122 -168h122zM131 431v22q30 9 44.5 14.5t32.5 23.5t18 43q0 23 -15.5 42t-48.5 19q-48 0 -88 -51l-15 15
q47 81 127 81q49 0 77 -26t28 -63q0 -57 -72 -86q44 -9 71.5 -34t27.5 -63q0 -58 -45 -94.5t-109 -36.5q-41 0 -74.5 20t-33.5 43q0 16 12 25.5t27 9.5q10 0 16.5 -9.5t14.5 -32.5q5 -17 19 -23q10 -5 27 -5q34 0 55.5 24.5t21.5 58.5q0 90 -118 83z" />
    <glyph glyph-name="questiondown" unicode="&#xbf;" horiz-adv-x="417" 
d="M226 242l25 2q32 -60 32 -105q0 -20 -34 -45q-13 -10 -99 -62q-29 -18 -29 -59q0 -42 19.5 -75.5t56.5 -40.5q27 -6 51 13q5 4 15.5 12.5t17.5 13t13 4.5q25 0 38.5 -17t13.5 -35q0 -30 -26 -45t-55 -15q-78 0 -132 62.5t-54 147.5q0 87 39 115q13 11 90 57q19 12 19 26
q1 14 -1 46zM232 460q23 0 42 -16t19 -46q0 -29 -17.5 -47.5t-44.5 -18.5t-44.5 18.5t-17.5 46.5q0 30 20 46.5t43 16.5z" />
    <glyph glyph-name="Agrave" unicode="&#xc0;" horiz-adv-x="675" 
d="M-6 0v30q54 6 75 17.5t37 51.5q104 265 194 502q7 19 5 44h72q2 -8 8 -24q27 -70 71 -189.5t82.5 -225t44.5 -121.5q12 -30 32 -40.5t65 -14.5v-30h-265v30q36 4 51 8q28 6 18 36q-31 92 -58 162h-224q-41 -111 -52 -145q-7 -27 -0.5 -38t28.5 -15q35 -6 53 -8v-30h-237z
M214 273h200l-98 277q-63 -167 -102 -277zM382 705l-19 -20l-189 109l3 16q65 27 89 24z" />
    <glyph glyph-name="Aacute" unicode="&#xc1;" horiz-adv-x="675" 
d="M-6 0v30q54 6 75 17.5t37 51.5q104 265 194 502q7 19 5 44h72q2 -8 8 -24q27 -70 71 -189.5t82.5 -225t44.5 -121.5q12 -30 32 -40.5t65 -14.5v-30h-265v30q36 4 51 8q28 6 18 36q-31 92 -58 162h-224q-41 -111 -52 -145q-7 -27 -0.5 -38t28.5 -15q35 -6 53 -8v-30h-237z
M214 273h200l-98 277q-63 -167 -102 -277zM301 685l-15 22l140 132q11 1 42.5 -11.5t40.5 -20.5v-15z" />
    <glyph glyph-name="Acircumflex" unicode="&#xc2;" horiz-adv-x="675" 
d="M-6 0v30q54 6 75 17.5t37 51.5q104 265 194 502q7 19 5 44h72q2 -8 8 -24q27 -70 71 -189.5t82.5 -225t44.5 -121.5q12 -30 32 -40.5t65 -14.5v-30h-265v30q36 4 51 8q28 6 18 36q-31 92 -58 162h-224q-41 -111 -52 -145q-7 -27 -0.5 -38t28.5 -15q35 -6 53 -8v-30h-237z
M214 273h200l-98 277q-63 -167 -102 -277zM504 704l-14 -26q-21 8 -74 31.5t-74 31.5q-87 -38 -149 -63l-11 26q53 34 149 115h25q112 -91 148 -115z" />
    <glyph glyph-name="Atilde" unicode="&#xc3;" horiz-adv-x="675" 
d="M-6 0v30q54 6 75 17.5t37 51.5q104 265 194 502q7 19 5 44h72q2 -8 8 -24q27 -70 71 -189.5t82.5 -225t44.5 -121.5q12 -30 32 -40.5t65 -14.5v-30h-265v30q36 4 51 8q28 6 18 36q-31 92 -58 162h-224q-41 -111 -52 -145q-7 -27 -0.5 -38t28.5 -15q35 -6 53 -8v-30h-237z
M214 273h200l-98 277q-63 -167 -102 -277zM486 811l26 -7q-6 -36 -31.5 -69t-70.5 -33q-29 0 -83 24q-44 18 -65 18q-22 0 -34 -10t-24 -36l-27 9q22 98 107 98q27 0 78 -21q46 -19 63 -19q23 0 36.5 8.5t24.5 37.5z" />
    <glyph glyph-name="Adieresis" unicode="&#xc4;" horiz-adv-x="675" 
d="M-6 0v30q54 6 75 17.5t37 51.5q104 265 194 502q7 19 5 44h72q2 -8 8 -24q27 -70 71 -189.5t82.5 -225t44.5 -121.5q12 -30 32 -40.5t65 -14.5v-30h-265v30q36 4 51 8q28 6 18 36q-31 92 -58 162h-224q-41 -111 -52 -145q-7 -27 -0.5 -38t28.5 -15q35 -6 53 -8v-30h-237z
M214 273h200l-98 277q-63 -167 -102 -277zM235 783q21 0 34 -15t13 -36q0 -24 -14.5 -36.5t-35.5 -12.5q-17 0 -31.5 13t-14.5 35q0 21 13.5 36.5t35.5 15.5zM439 782q23 0 36 -15t13 -35q0 -19 -14.5 -34t-35.5 -15q-19 0 -33.5 14t-14.5 34q0 24 14.5 37.5t34.5 13.5z" />
    <glyph glyph-name="Aring" unicode="&#xc5;" horiz-adv-x="675" 
d="M-6 0v30q54 6 75 17.5t37 51.5q104 265 194 502q7 19 5 44h72q2 -8 8 -24q27 -70 71 -189.5t82.5 -225t44.5 -121.5q12 -30 32 -40.5t65 -14.5v-30h-265v30q36 4 51 8q28 6 18 36q-31 92 -58 162h-224q-41 -111 -52 -145q-7 -27 -0.5 -38t28.5 -15q35 -6 53 -8v-30h-237z
M214 273h200l-98 277q-63 -167 -102 -277zM339 838q42 0 65.5 -23.5t23.5 -59.5t-24 -59t-65 -23t-64.5 23t-23.5 59q0 35 23.5 59t64.5 24zM338 806q-21 0 -36 -14.5t-15 -36.5q0 -25 15 -37.5t38 -12.5q51 0 51 53q0 20 -15.5 34t-37.5 14z" />
    <glyph glyph-name="AE" unicode="&#xc6;" horiz-adv-x="958" 
d="M295 333h163v272q-82 -130 -163 -272zM238 0h-254v30q25 2 31 3q53 9 91 65q37 54 288 468q8 14 10.5 21t-2 13.5t-20.5 8.5q-48 5 -81 7v29h421q99 0 131 6q4 -75 26 -171l-27 -8q-49 106 -92 129q-16 9 -62 9h-117q-19 0 -24.5 -8t-5.5 -33v-236h102q45 1 60 23t25 85
h27q-3 -114 -3 -125q0 -8 3 -128h-28q-7 33 -9 43.5t-8.5 28.5t-14 22.5t-20 9t-32.5 4.5h-102v-189q0 -47 15.5 -59.5t69.5 -12.5h71q41 0 57 3t34 14q49 31 107 143l28 -10q-35 -86 -58 -189q-76 4 -143 4h-378v30q36 2 66 7q38 7 38 54v205h-185q-41 -68 -111 -194
q-31 -55 22 -65q6 -1 54 -7v-30z" />
    <glyph glyph-name="Ccedilla" unicode="&#xc7;" horiz-adv-x="691" 
d="M610 175l27 -14q-26 -52 -73 -157q-10 -1 -47 -8q-63 -12 -110 -12l-27 -33q86 -23 86 -92q0 -34 -26.5 -61.5t-68.5 -27.5q-32 0 -55 13t-23 31q0 11 10 21t25 11q1 0 2.5 -0.5t2.5 -1t2.5 -1.5t2.5 -2t2.5 -3t2.5 -3.5l3 -4.5t3.5 -4.5t3.5 -5.5t4 -6q10 -16 27 -16
q14 0 23.5 10.5t9.5 26.5q0 59 -110 63v16l65 71q-143 10 -229.5 100t-86.5 241q0 77 30 146.5t90 116.5q92 72 221 72q82 0 150 -29q23 9 37 21h20q0 -69 23 -198l-28 -8q-45 115 -103 150q-43 28 -104 28q-108 0 -168.5 -78t-60.5 -217q0 -134 62.5 -220.5t182.5 -86.5
q34 0 64 11q67 26 138 141z" />
    <glyph glyph-name="Egrave" unicode="&#xc8;" horiz-adv-x="627" 
d="M401 0h-377v30q66 3 85 14t19 47v463q0 37 -19 47t-75 14v30h358q99 0 131 6q4 -75 26 -171l-27 -8q-49 105 -92 129q-16 9 -62 9h-117q-19 0 -24.5 -8t-5.5 -33v-221h100q45 0 60 22t25 85h29q0 -4 -2 -51t-2 -73q0 -49 4 -129h-30q-14 73 -26 88q-15 21 -58 21h-100
v-204q0 -47 15.5 -59.5t69.5 -12.5h71q41 0 57 3t34 14q49 31 107 143l28 -10q-35 -86 -58 -189q-76 4 -144 4zM351 717l-20 -21l-188 109l3 16q16 8 47.5 16.5t41.5 7.5z" />
    <glyph glyph-name="Eacute" unicode="&#xc9;" horiz-adv-x="627" 
d="M401 0h-377v30q66 3 85 14t19 47v463q0 37 -19 47t-75 14v30h358q99 0 131 6q4 -75 26 -171l-27 -8q-49 105 -92 129q-16 9 -62 9h-117q-19 0 -24.5 -8t-5.5 -33v-221h100q45 0 60 22t25 85h29q0 -4 -2 -51t-2 -73q0 -49 4 -129h-30q-14 73 -26 88q-15 21 -58 21h-100
v-204q0 -47 15.5 -59.5t69.5 -12.5h71q41 0 57 3t34 14q49 31 107 143l28 -10q-35 -86 -58 -189q-76 4 -144 4zM259 694l-15 21l140 133q11 0 42 -12.5t41 -19.5l-1 -16z" />
    <glyph glyph-name="Ecircumflex" unicode="&#xca;" horiz-adv-x="627" 
d="M401 0h-377v30q66 3 85 14t19 47v463q0 37 -19 47t-75 14v30h358q99 0 131 6q4 -75 26 -171l-27 -8q-49 105 -92 129q-16 9 -62 9h-117q-19 0 -24.5 -8t-5.5 -33v-221h100q45 0 60 22t25 85h29q0 -4 -2 -51t-2 -73q0 -49 4 -129h-30q-14 73 -26 88q-15 21 -58 21h-100
v-204q0 -47 15.5 -59.5t69.5 -12.5h71q41 0 57 3t34 14q49 31 107 143l28 -10q-35 -86 -58 -189q-76 4 -144 4zM466 718l-15 -25q-21 8 -74 31t-74 31q-126 -53 -148 -62l-12 25q51 33 149 115h26q112 -90 148 -115z" />
    <glyph glyph-name="Edieresis" unicode="&#xcb;" horiz-adv-x="627" 
d="M401 0h-377v30q66 3 85 14t19 47v463q0 37 -19 47t-75 14v30h358q99 0 131 6q4 -75 26 -171l-27 -8q-49 105 -92 129q-16 9 -62 9h-117q-19 0 -24.5 -8t-5.5 -33v-221h100q45 0 60 22t25 85h29q0 -4 -2 -51t-2 -73q0 -49 4 -129h-30q-14 73 -26 88q-15 21 -58 21h-100
v-204q0 -47 15.5 -59.5t69.5 -12.5h71q41 0 57 3t34 14q49 31 107 143l28 -10q-35 -86 -58 -189q-76 4 -144 4zM208 814q21 0 34.5 -14.5t13.5 -36.5q0 -24 -15 -36.5t-35 -12.5q-17 0 -31.5 13t-14.5 35q0 21 13.5 36.5t34.5 15.5zM413 813q23 0 35.5 -15t12.5 -35
q0 -19 -14 -34t-35 -15q-19 0 -33.5 14t-14.5 34q0 24 14.5 37.5t34.5 13.5z" />
    <glyph glyph-name="Igrave" unicode="&#xcc;" horiz-adv-x="349" 
d="M315 0h-281v30q56 3 75 13.5t19 47.5v463q0 16 -5 26.5t-9 16t-20 10t-21 5t-30 2.5q-6 1 -9 1v30h281v-30q-52 -3 -73 -14t-21 -47v-463q0 -35 19 -46t75 -15v-30zM220 706l-20 -21l-189 110l3 16q19 8 49 16.5t40 6.5z" />
    <glyph glyph-name="Iacute" unicode="&#xcd;" horiz-adv-x="349" 
d="M315 0h-281v30q56 3 75 13.5t19 47.5v463q0 16 -5 26.5t-9 16t-20 10t-21 5t-30 2.5q-6 1 -9 1v30h281v-30q-52 -3 -73 -14t-21 -47v-463q0 -35 19 -46t75 -15v-30zM141 689l-15 21l140 133q11 0 42.5 -12t40.5 -20v-15z" />
    <glyph glyph-name="Icircumflex" unicode="&#xce;" horiz-adv-x="349" 
d="M315 0h-281v30q56 3 75 13.5t19 47.5v463q0 16 -5 26.5t-9 16t-20 10t-21 5t-30 2.5q-6 1 -9 1v30h281v-30q-52 -3 -73 -14t-21 -47v-463q0 -35 19 -46t75 -15v-30zM333 718l-14 -26q-19 8 -72.5 31t-75.5 32q-19 -8 -73.5 -31.5t-74.5 -31.5l-12 26q64 41 149 115h26
q100 -84 147 -115z" />
    <glyph glyph-name="Idieresis" unicode="&#xcf;" horiz-adv-x="349" 
d="M315 0h-281v30q56 3 75 13.5t19 47.5v463q0 16 -5 26.5t-9 16t-20 10t-21 5t-30 2.5q-6 1 -9 1v30h281v-30q-52 -3 -73 -14t-21 -47v-463q0 -35 19 -46t75 -15v-30zM72 809q21 0 34 -14.5t13 -36.5q0 -24 -14.5 -36.5t-34.5 -12.5q-17 0 -31.5 13t-14.5 35q0 21 13 36.5
t35 15.5zM277 808q22 0 35 -15t13 -35q0 -19 -14 -34t-35 -15q-19 0 -33.5 14t-14.5 34q0 24 14.5 37.5t34.5 13.5z" />
    <glyph glyph-name="Eth" unicode="&#xd0;" horiz-adv-x="722" 
d="M34 645h283q126 0 202 -40q73 -38 110.5 -108.5t37.5 -158.5q0 -143 -93 -236q-45 -47 -113.5 -74.5t-146.5 -27.5h-280v30q58 3 76 15t18 46v224h-89v42h89v197q0 33 -19 45.5t-75 15.5v30zM221 315v-181q0 -66 9 -73q29 -28 103 -28q100 0 161 78q68 82 68 217
q0 162 -97 237q-61 48 -152 48q-71 0 -84 -14q-8 -8 -8 -46v-196h170v-42h-170z" />
    <glyph glyph-name="Ntilde" unicode="&#xd1;" horiz-adv-x="741" 
d="M281 0h-252v30q61 5 80.5 25t19.5 84v399q0 25 -18 43q-17 17 -33.5 23t-58.5 11v30h163l398 -513v367q0 71 -18.5 90t-94.5 26v30h251v-30q-62 -4 -80 -26.5t-18 -88.5v-401q0 -76 3 -102h-65q-25 37 -63 87l-325 433v-378q0 -65 20.5 -84t90.5 -25v-30zM519 824l26 -7
q-6 -36 -31.5 -68.5t-70.5 -32.5q-31 0 -83 23q-47 19 -65 19q-22 0 -34 -10.5t-24 -36.5l-27 9q9 43 35.5 71t71.5 28q29 0 78 -22q46 -19 63 -19q22 0 36 9t25 37z" />
    <glyph glyph-name="Ograve" unicode="&#xd2;" horiz-adv-x="740" 
d="M373 -16q-123 0 -214 81q-103 97 -103 257q0 89 32.5 159.5t88.5 114.5q84 65 189 65q138 0 228 -90t90 -243q0 -130 -71 -225q-42 -56 -103.5 -87.5t-136.5 -31.5zM385 20q60 0 102 33q90 71 90 261q0 157 -76 248q-54 63 -137 63q-65 0 -106 -33q-95 -70 -95 -247
q0 -149 65 -240q61 -85 157 -85zM433 731l-20 -21l-188 109l3 16q64 27 88 24z" />
    <glyph glyph-name="Oacute" unicode="&#xd3;" horiz-adv-x="740" 
d="M373 -16q-123 0 -214 81q-103 97 -103 257q0 89 32.5 159.5t88.5 114.5q84 65 189 65q138 0 228 -90t90 -243q0 -130 -71 -225q-42 -56 -103.5 -87.5t-136.5 -31.5zM385 20q60 0 102 33q90 71 90 261q0 157 -76 248q-54 63 -137 63q-65 0 -106 -33q-95 -70 -95 -247
q0 -149 65 -240q61 -85 157 -85zM327 707l-15 21l140 133q11 0 42 -12.5t41 -19.5l-1 -16z" />
    <glyph glyph-name="Ocircumflex" unicode="&#xd4;" horiz-adv-x="740" 
d="M373 -16q-123 0 -214 81q-103 97 -103 257q0 89 32.5 159.5t88.5 114.5q84 65 189 65q138 0 228 -90t90 -243q0 -130 -71 -225q-42 -56 -103.5 -87.5t-136.5 -31.5zM385 20q60 0 102 33q90 71 90 261q0 157 -76 248q-54 63 -137 63q-65 0 -106 -33q-95 -70 -95 -247
q0 -149 65 -240q61 -85 157 -85zM527 728l-15 -26q-23 9 -76 32.5t-71 30.5q-105 -46 -149 -63l-11 26q53 34 149 115h25q112 -91 148 -115z" />
    <glyph glyph-name="Otilde" unicode="&#xd5;" horiz-adv-x="740" 
d="M373 -16q-123 0 -214 81q-103 97 -103 257q0 89 32.5 159.5t88.5 114.5q84 65 189 65q138 0 228 -90t90 -243q0 -130 -71 -225q-42 -56 -103.5 -87.5t-136.5 -31.5zM385 20q60 0 102 33q90 71 90 261q0 157 -76 248q-54 63 -137 63q-65 0 -106 -33q-95 -70 -95 -247
q0 -149 65 -240q61 -85 157 -85zM510 842l26 -7q-6 -36 -31.5 -69t-70.5 -33q-29 0 -83 24q-43 18 -65 18t-34 -10t-24 -36l-26 9q8 42 34.5 70t71.5 28q26 0 79 -21q43 -19 62 -19q22 0 36 9t25 37z" />
    <glyph glyph-name="Odieresis" unicode="&#xd6;" horiz-adv-x="740" 
d="M373 -16q-123 0 -214 81q-103 97 -103 257q0 89 32.5 159.5t88.5 114.5q84 65 189 65q138 0 228 -90t90 -243q0 -130 -71 -225q-42 -56 -103.5 -87.5t-136.5 -31.5zM385 20q60 0 102 33q90 71 90 261q0 157 -76 248q-54 63 -137 63q-65 0 -106 -33q-95 -70 -95 -247
q0 -149 65 -240q61 -85 157 -85zM265 821q21 0 34.5 -14.5t13.5 -35.5q0 -24 -15 -37t-35 -13q-17 0 -31.5 13.5t-14.5 35.5q0 21 13.5 36t34.5 15zM470 820q22 0 35 -15t13 -34q0 -20 -14 -35t-35 -15q-19 0 -33.5 14t-14.5 35q0 23 14.5 36.5t34.5 13.5z" />
    <glyph glyph-name="multiply" unicode="&#xd7;" horiz-adv-x="636" 
d="M270 238l-193 196l45 45l195 -198l195 198l46 -45l-198 -195l198 -195l-46 -46l-198 198l-193 -198l-44 45z" />
    <glyph glyph-name="Oslash" unicode="&#xd8;" horiz-adv-x="740" 
d="M622 670l-52 -77q114 -93 114 -265q0 -129 -71 -224q-42 -56 -103.5 -87.5t-136.5 -31.5q-100 0 -177 52l-55 -82l-27 20l55 82q-1 2 -4 4.5t-5 3.5q-104 96 -104 257q0 89 32.5 159.5t88.5 114.5q82 65 189 65q100 0 177 -49l52 77zM213 122l294 437q0 1 -2 3
q-53 63 -141 63q-64 0 -108 -33q-97 -73 -97 -247q0 -136 54 -223zM528 530l-295 -438q60 -71 152 -71q62 0 102 32q94 73 94 261q0 131 -53 216z" />
    <glyph glyph-name="Ugrave" unicode="&#xd9;" horiz-adv-x="724" 
d="M24 615v30h281v-30q-55 -2 -74.5 -14t-19.5 -47v-337q0 -57 13 -87q19 -44 62 -69.5t105 -25.5q75 0 114.5 30t55.5 91q7 26 7 79v274q0 66 -17.5 82.5t-87.5 23.5v30h246v-30q-63 -6 -79 -25.5t-16 -80.5v-259q0 -60 -11 -100q-41 -166 -237 -166q-104 0 -162.5 44.5
t-76.5 111.5q-9 33 -9 96v318q0 34 -19 45.5t-75 15.5zM424 709l-20 -20l-188 109l3 16q64 27 89 24z" />
    <glyph glyph-name="Uacute" unicode="&#xda;" horiz-adv-x="724" 
d="M24 615v30h281v-30q-55 -2 -74.5 -14t-19.5 -47v-337q0 -57 13 -87q19 -44 62 -69.5t105 -25.5q75 0 114.5 30t55.5 91q7 26 7 79v274q0 66 -17.5 82.5t-87.5 23.5v30h246v-30q-63 -6 -79 -25.5t-16 -80.5v-259q0 -60 -11 -100q-41 -166 -237 -166q-104 0 -162.5 44.5
t-76.5 111.5q-9 33 -9 96v318q0 34 -19 45.5t-75 15.5zM332 702l-15 22l140 133q11 0 42 -12.5t42 -19.5l-1 -16z" />
    <glyph glyph-name="Ucircumflex" unicode="&#xdb;" horiz-adv-x="724" 
d="M24 615v30h281v-30q-55 -2 -74.5 -14t-19.5 -47v-337q0 -57 13 -87q19 -44 62 -69.5t105 -25.5q75 0 114.5 30t55.5 91q7 26 7 79v274q0 66 -17.5 82.5t-87.5 23.5v30h246v-30q-63 -6 -79 -25.5t-16 -80.5v-259q0 -60 -11 -100q-41 -166 -237 -166q-104 0 -162.5 44.5
t-76.5 111.5q-9 33 -9 96v318q0 34 -19 45.5t-75 15.5zM533 734l-14 -26q-24 10 -78.5 33.5t-69.5 29.5q-111 -49 -149 -63l-11 26q53 34 149 115h25q112 -91 148 -115z" />
    <glyph glyph-name="Udieresis" unicode="&#xdc;" horiz-adv-x="724" 
d="M24 615v30h281v-30q-55 -2 -74.5 -14t-19.5 -47v-337q0 -57 13 -87q19 -44 62 -69.5t105 -25.5q75 0 114.5 30t55.5 91q7 26 7 79v274q0 66 -17.5 82.5t-87.5 23.5v30h246v-30q-63 -6 -79 -25.5t-16 -80.5v-259q0 -60 -11 -100q-41 -166 -237 -166q-104 0 -162.5 44.5
t-76.5 111.5q-9 33 -9 96v318q0 34 -19 45.5t-75 15.5zM271 815q21 0 34 -14.5t13 -36.5q0 -24 -14.5 -36.5t-34.5 -12.5q-17 0 -31.5 13t-14.5 35q0 21 13 36.5t35 15.5zM476 814q22 0 35 -15t13 -35q0 -19 -14 -34t-35 -15q-19 0 -33.5 14t-14.5 34q0 24 14.5 37.5
t34.5 13.5z" />
    <glyph glyph-name="Yacute" unicode="&#xdd;" horiz-adv-x="609" 
d="M447 0h-281v30q62 4 78.5 15.5t16.5 45.5v146q0 22 -9 40q-28 61 -156 282q-19 32 -37 41t-61 15v30h259v-29q-41 -5 -54 -8q-24 -6 -13 -27q7 -14 147 -272q73 130 132 253q20 37 -14 44q-27 6 -66 9v30h229v-30q-50 -4 -71 -18t-43 -55q-107 -192 -143 -264
q-7 -14 -7 -41v-146q0 -37 17.5 -47t75.5 -14v-30zM281 694l-15 21l140 133q11 0 42 -12t41 -20l-1 -15z" />
    <glyph glyph-name="Thorn" unicode="&#xde;" horiz-adv-x="610" 
d="M221 454v-243q0 -20 13 -25q17 -8 63 -8q77 0 115.5 36.5t38.5 120.5q0 144 -153 144q-50 0 -65 -4q-12 -4 -12 -21zM316 0h-281v30q22 1 56 7q38 7 38 54v463q0 47 -41 54q-32 6 -53 7v30h281v-30q-25 -1 -52 -6q-43 -8 -43 -55v-43h95q112 0 164 -33q74 -47 74 -138
q0 -109 -97 -160q-61 -34 -162 -34q-36 0 -74 4v-59q0 -46 41 -54q29 -6 54 -7v-30z" />
    <glyph glyph-name="germandbls" unicode="&#xdf;" horiz-adv-x="543" 
d="M181 0h-158v26q21 4 48 11q21 5 21 30v328h-62v24q43 14 62 29q0 77 25.5 139.5t75.5 95.5q45 32 104 32q79 0 119 -47.5t40 -104.5q0 -24 -3 -36q-2 -11 -12 -17q-52 -27 -80.5 -50t-28.5 -49q0 -30 65 -79q64 -47 87.5 -87t23.5 -85q0 -76 -52 -124t-114 -48
q-57 0 -88 20.5t-31 48.5q0 17 14 32t32 15q12 0 18.5 -8t15.5 -26q2 -4 6 -13t6.5 -14.5t6 -11t6.5 -6.5q9 -4 26 -4q30 0 55 27t25 71q0 41 -18.5 70t-63.5 63q-54 43 -72 69t-18 55q0 25 18.5 50t36.5 39t51 36q16 10 17 25q2 13 2 38q0 45 -23.5 82t-72.5 37
q-117 0 -117 -202v-414q0 -25 7 -67z" />
    <glyph glyph-name="agrave" unicode="&#xe0;" horiz-adv-x="447" 
d="M429 60v-27q-21 -24 -48.5 -36t-44.5 -12q-46 0 -61 59q-75 -59 -127 -59q-37 0 -66 31.5t-29 77.5q0 34 17 54t54 39q50 25 155 69q0 75 -1 82q-3 22 -26.5 46t-57.5 24q-9 0 -28 -9t-33 -20q-11 -8 -11 -14q0 -5 3 -11q14 -23 14 -38q0 -14 -16 -30t-36 -16
q-17 0 -31 14.5t-14 36.5q0 27 44 59q51 37 92 56.5t58 19.5q68 0 104 -62q17 -26 17 -88q0 -20 -1.5 -117.5t-1.5 -127.5q0 -19 24 -19q22 0 51 18zM278 228q-83 -36 -101 -48q-21 -14 -31 -27.5t-10 -37.5q0 -36 24 -60q16 -16 41 -16q32 0 56 20q17 17 18 41q3 60 3 128z
M263 530l-22 -13l-153 152l3 13q13 5 49 10.5t43 3.5z" />
    <glyph glyph-name="aacute" unicode="&#xe1;" horiz-adv-x="447" 
d="M429 60v-27q-21 -24 -48.5 -36t-44.5 -12q-46 0 -61 59q-75 -59 -127 -59q-37 0 -66 31.5t-29 77.5q0 34 17 54t54 39q50 25 155 69q0 75 -1 82q-3 22 -26.5 46t-57.5 24q-9 0 -28 -9t-33 -20q-11 -8 -11 -14q0 -5 3 -11q14 -23 14 -38q0 -14 -16 -30t-36 -16
q-17 0 -31 14.5t-14 36.5q0 27 44 59q51 37 92 56.5t58 19.5q68 0 104 -62q17 -26 17 -88q0 -20 -1.5 -117.5t-1.5 -127.5q0 -19 24 -19q22 0 51 18zM278 228q-83 -36 -101 -48q-21 -14 -31 -27.5t-10 -37.5q0 -36 24 -60q16 -16 41 -16q32 0 56 20q17 17 18 41q3 60 3 128z
M184 517l-23 15l102 163q6 2 37.5 -7t46.5 -16l-1 -11z" />
    <glyph glyph-name="acircumflex" unicode="&#xe2;" horiz-adv-x="447" 
d="M429 60v-27q-21 -24 -48.5 -36t-44.5 -12q-46 0 -61 59q-75 -59 -127 -59q-37 0 -66 31.5t-29 77.5q0 34 17 54t54 39q50 25 155 69q0 75 -1 82q-3 22 -26.5 46t-57.5 24q-9 0 -28 -9t-33 -20q-11 -8 -11 -14q0 -5 3 -11q14 -23 14 -38q0 -14 -16 -30t-36 -16
q-17 0 -31 14.5t-14 36.5q0 27 44 59q51 37 92 56.5t58 19.5q68 0 104 -62q17 -26 17 -88q0 -20 -1.5 -117.5t-1.5 -127.5q0 -19 24 -19q22 0 51 18zM278 228q-83 -36 -101 -48q-21 -14 -31 -27.5t-10 -37.5q0 -36 24 -60q16 -16 41 -16q32 0 56 20q17 17 18 41q3 60 3 128z
M347 538l-24 -19l-110 95l-106 -95l-23 19q26 36 117 168h26q41 -65 120 -168z" />
    <glyph glyph-name="atilde" unicode="&#xe3;" horiz-adv-x="447" 
d="M429 60v-27q-21 -24 -48.5 -36t-44.5 -12q-46 0 -61 59q-75 -59 -127 -59q-37 0 -66 31.5t-29 77.5q0 34 17 54t54 39q50 25 155 69q0 75 -1 82q-3 22 -26.5 46t-57.5 24q-9 0 -28 -9t-33 -20q-11 -8 -11 -14q0 -5 3 -11q14 -23 14 -38q0 -14 -16 -30t-36 -16
q-17 0 -31 14.5t-14 36.5q0 27 44 59q51 37 92 56.5t58 19.5q68 0 104 -62q17 -26 17 -88q0 -20 -1.5 -117.5t-1.5 -127.5q0 -19 24 -19q22 0 51 18zM278 228q-83 -36 -101 -48q-21 -14 -31 -27.5t-10 -37.5q0 -36 24 -60q16 -16 41 -16q32 0 56 20q17 17 18 41q3 60 3 128z
M350 661l25 -8q-6 -37 -29.5 -69t-66.5 -32q-31 0 -81 24q-41 18 -61 18q-21 0 -32.5 -10.5t-22.5 -35.5l-26 9q6 43 30.5 70.5t65.5 27.5q30 0 80 -22q43 -19 62 -19t32 9t24 38z" />
    <glyph glyph-name="adieresis" unicode="&#xe4;" horiz-adv-x="447" 
d="M429 60v-27q-21 -24 -48.5 -36t-44.5 -12q-46 0 -61 59q-75 -59 -127 -59q-37 0 -66 31.5t-29 77.5q0 34 17 54t54 39q50 25 155 69q0 75 -1 82q-3 22 -26.5 46t-57.5 24q-9 0 -28 -9t-33 -20q-11 -8 -11 -14q0 -5 3 -11q14 -23 14 -38q0 -14 -16 -30t-36 -16
q-17 0 -31 14.5t-14 36.5q0 27 44 59q51 37 92 56.5t58 19.5q68 0 104 -62q17 -26 17 -88q0 -20 -1.5 -117.5t-1.5 -127.5q0 -19 24 -19q22 0 51 18zM278 228q-83 -36 -101 -48q-21 -14 -31 -27.5t-10 -37.5q0 -36 24 -60q16 -16 41 -16q32 0 56 20q17 17 18 41q3 60 3 128z
M126 658q21 0 34 -14.5t13 -35.5q0 -25 -14.5 -37.5t-34.5 -12.5q-17 0 -32 13.5t-15 35.5q0 21 13.5 36t35.5 15zM305 657q23 0 36 -15t13 -34q0 -20 -14 -35t-36 -15q-19 0 -33 14t-14 35q0 23 14 36.5t34 13.5z" />
    <glyph glyph-name="aring" unicode="&#xe5;" horiz-adv-x="447" 
d="M429 60v-27q-21 -24 -48.5 -36t-44.5 -12q-46 0 -61 59q-75 -59 -127 -59q-37 0 -66 31.5t-29 77.5q0 34 17 54t54 39q50 25 155 69q0 75 -1 82q-3 22 -26.5 46t-57.5 24q-9 0 -28 -9t-33 -20q-11 -8 -11 -14q0 -5 3 -11q14 -23 14 -38q0 -14 -16 -30t-36 -16
q-17 0 -31 14.5t-14 36.5q0 27 44 59q51 37 92 56.5t58 19.5q68 0 104 -62q17 -26 17 -88q0 -20 -1.5 -117.5t-1.5 -127.5q0 -19 24 -19q22 0 51 18zM278 228q-83 -36 -101 -48q-21 -14 -31 -27.5t-10 -37.5q0 -36 24 -60q16 -16 41 -16q32 0 56 20q17 17 18 41q3 60 3 128z
M214 687q38 0 61 -25.5t23 -60.5t-23 -59.5t-61 -24.5t-61 24.5t-23 59.5t23 60.5t61 25.5zM213 656q-20 0 -33.5 -16t-13.5 -39q0 -25 14 -39.5t34 -14.5q21 0 34.5 14.5t13.5 41.5q0 22 -14.5 37.5t-34.5 15.5z" />
    <glyph glyph-name="ae" unicode="&#xe6;" horiz-adv-x="688" 
d="M280 237q-79 -26 -121 -64q-23 -17 -23 -51q0 -41 23 -64q18 -19 39 -19q44 0 104 59q-22 52 -22 139zM630 104l18 -18q-66 -98 -180 -98q-99 0 -154 86q-93 -89 -164 -89q-37 0 -67 34t-30 82q0 31 16 50.5t50 37.5q69 40 161 74v75q-3 22 -24.5 46t-57.5 24
q-10 0 -31.5 -8.5t-34.5 -19.5q-11 -8 -11 -14q0 -5 4 -12q14 -23 14 -38q0 -14 -16 -30t-36 -16q-17 0 -31 14.5t-14 36.5q0 27 44 59q53 38 94 56.5t59 18.5q31 0 58.5 -16.5t43.5 -42.5q60 60 138 60q80 0 125 -50t45 -113q0 -41 -9 -42q-27 -3 -284 -3v-9
q0 -108 46 -157q42 -43 94 -43q38 0 69 13.5t65 51.5zM358 278q124 0 176 3q19 1 25 10t6 28q0 37 -24.5 72t-72.5 35q-41 0 -72 -36.5t-38 -111.5z" />
    <glyph glyph-name="ccedilla" unicode="&#xe7;" horiz-adv-x="448" 
d="M411 104l16 -19q-58 -84 -148 -95l-29 -34q92 -27 92 -96q0 -33 -29.5 -60.5t-72.5 -27.5q-32 0 -55 13t-23 31q0 10 10.5 20.5t24.5 11.5q9 0 30 -32q10 -17 28 -17q13 0 22.5 11t9.5 26q0 59 -107 64l-1 16l66 72q-93 3 -149 66q-55 63 -55 162q0 114 92 190
q61 50 148 50q67 0 101.5 -23t34.5 -48q0 -19 -14 -34.5t-33 -15.5t-40 24q-7 8 -19 27.5t-18 25.5q-8 10 -38 10q-34 0 -64 -23q-56 -44 -56 -161q0 -91 41 -146q40 -52 101 -52q82 0 134 64z" />
    <glyph glyph-name="egrave" unicode="&#xe8;" horiz-adv-x="463" 
d="M406 105l18 -19q-65 -98 -182 -98q-48 0 -89.5 21t-66.5 56q-45 64 -45 151q0 65 26.5 118.5t70.5 85.5q48 36 115 36q82 0 127 -51t45 -115q0 -38 -9 -39q-27 -3 -283 -3q-1 -8 -1 -17q0 -102 47 -152q39 -40 98 -40q76 0 129 66zM135 278q122 0 175 3q19 1 24.5 9
t5.5 27q0 38 -24.5 73.5t-72.5 35.5q-41 0 -71.5 -37t-36.5 -111zM287 530l-22 -13l-153 151l3 13q13 5 49.5 11t42.5 4z" />
    <glyph glyph-name="eacute" unicode="&#xe9;" horiz-adv-x="464" 
d="M406 105l18 -19q-65 -98 -182 -98q-48 0 -89.5 21t-66.5 56q-45 64 -45 151q0 65 26.5 118.5t70.5 85.5q48 36 115 36q82 0 127 -51t45 -115q0 -38 -9 -39q-27 -3 -283 -3q-1 -8 -1 -17q0 -102 47 -152q39 -40 98 -40q76 0 129 66zM135 278q122 0 175 3q19 1 24.5 9
t5.5 27q0 38 -24.5 73.5t-72.5 35.5q-41 0 -71.5 -37t-36.5 -111zM214 517l-23 15l102 163q6 2 37.5 -7t46.5 -16l-1 -11z" />
    <glyph glyph-name="ecircumflex" unicode="&#xea;" horiz-adv-x="463" 
d="M406 105l18 -19q-65 -98 -182 -98q-48 0 -89.5 21t-66.5 56q-45 64 -45 151q0 65 26.5 118.5t70.5 85.5q48 36 115 36q82 0 127 -51t45 -115q0 -38 -9 -39q-27 -3 -283 -3q-1 -8 -1 -17q0 -102 47 -152q39 -40 98 -40q76 0 129 66zM135 278q122 0 175 3q19 1 24.5 9
t5.5 27q0 38 -24.5 73.5t-72.5 35.5q-41 0 -71.5 -37t-36.5 -111zM367 538l-25 -19l-109 95l-107 -95l-23 19q50 68 117 168h27q35 -57 120 -168z" />
    <glyph glyph-name="edieresis" unicode="&#xeb;" horiz-adv-x="464" 
d="M406 105l18 -19q-65 -98 -182 -98q-48 0 -89.5 21t-66.5 56q-45 64 -45 151q0 65 26.5 118.5t70.5 85.5q48 36 115 36q82 0 127 -51t45 -115q0 -38 -9 -39q-27 -3 -283 -3q-1 -8 -1 -17q0 -102 47 -152q39 -40 98 -40q76 0 129 66zM135 278q122 0 175 3q19 1 24.5 9
t5.5 27q0 38 -24.5 73.5t-72.5 35.5q-41 0 -71.5 -37t-36.5 -111zM147 658q21 0 34 -14.5t13 -35.5q0 -25 -14.5 -37.5t-34.5 -12.5q-17 0 -32 13.5t-15 35.5q0 21 13.5 36t35.5 15zM326 657q23 0 36 -15t13 -34q0 -20 -14 -35t-36 -15q-19 0 -33 14t-14 35q0 23 14 36.5
t34 13.5z" />
    <glyph glyph-name="igrave" unicode="&#xec;" horiz-adv-x="262" 
d="M235 0h-214v30q48 4 59 9.5t11 29.5v231q0 38 -2.5 49.5t-10.5 18.5q-15 13 -42 27v19q74 12 134 42l6 -5q-2 -32 -2 -92v-289q0 -23 10 -29.5t51 -10.5v-30zM158 530l-22 -13l-153 151l3 13q13 5 49.5 11t43.5 4z" />
    <glyph glyph-name="iacute" unicode="&#xed;" horiz-adv-x="262" 
d="M235 0h-214v30q48 4 59 9.5t11 29.5v231q0 38 -2.5 49.5t-10.5 18.5q-15 13 -42 27v19q74 12 134 42l6 -5q-2 -32 -2 -92v-289q0 -23 10 -29.5t51 -10.5v-30zM106 517l-23 15l102 163q6 2 37.5 -7t46.5 -16l-1 -11z" />
    <glyph glyph-name="icircumflex" unicode="&#xee;" horiz-adv-x="262" 
d="M235 0h-214v30q48 4 59 9.5t11 29.5v231q0 38 -2.5 49.5t-10.5 18.5q-15 13 -42 27v19q74 12 134 42l6 -5q-2 -32 -2 -92v-289q0 -23 10 -29.5t51 -10.5v-30zM260 538l-25 -19l-109 95l-107 -95l-23 19q50 68 117 168h27q35 -57 120 -168z" />
    <glyph glyph-name="idieresis" unicode="&#xef;" horiz-adv-x="262" 
d="M235 0h-214v30q48 4 59 9.5t11 29.5v231q0 38 -2.5 49.5t-10.5 18.5q-15 13 -42 27v19q74 12 134 42l6 -5q-2 -32 -2 -92v-289q0 -23 10 -29.5t51 -10.5v-30zM36 658q21 0 34 -14.5t13 -35.5q0 -25 -14.5 -37.5t-34.5 -12.5q-17 0 -32 13.5t-15 35.5q0 21 13.5 36
t35.5 15zM215 657q23 0 36 -15t13 -34q0 -20 -14 -35t-36 -15q-19 0 -33 14t-14 35q0 23 14 36.5t34 13.5z" />
    <glyph glyph-name="eth" unicode="&#xf0;" horiz-adv-x="520" 
d="M267 19q53 0 83 60.5t30 167.5q0 65 -7 94q-7 36 -25 53q-32 29 -84 29q-14 0 -29 -4.5t-33 -17.5t-32 -33t-23.5 -55t-9.5 -80q0 -34 5 -66.5t18 -68.5t40.5 -57.5t66.5 -21.5zM263 580l-124 -70l-18 29l115 66q-51 49 -157 71l7 29q53 -4 109 -24t93 -45l109 62l18 -29
l-95 -55q152 -122 152 -337q0 -128 -55 -208.5t-163 -80.5q-96 0 -154.5 66.5t-58.5 164.5q0 104 61 171t153 67q66 0 103 -32q-25 96 -95 155z" />
    <glyph glyph-name="ntilde" unicode="&#xf1;" horiz-adv-x="541" 
d="M240 0h-217v30q45 2 57 10t12 35v229q0 44 -3 54q-5 18 -52 34v21q66 12 133 43l7 -4q-3 -45 -3 -64q67 68 144 68q56 0 92 -36q43 -42 43 -124v-221q0 -27 10.5 -34.5t50.5 -10.5v-30h-219v30q4 0 10 1q40 4 50.5 9.5t13.5 26.5q2 22 2 47v187q0 52 -27 79
q-23 23 -70 23q-46 0 -77 -29q-15 -15 -19 -27t-4 -45v-227q0 -27 11.5 -34.5t54.5 -10.5v-30zM391 663l25 -8q-6 -37 -29.5 -69t-66.5 -32q-32 0 -80 24q-43 18 -62 18q-21 0 -32.5 -10.5t-22.5 -35.5l-25 9q6 43 30.5 70.5t64.5 27.5q31 0 80 -22q43 -19 62 -19t32 9
t24 38z" />
    <glyph glyph-name="ograve" unicode="&#xf2;" horiz-adv-x="528" 
d="M268 456q98 0 160 -68q59 -66 59 -162q0 -103 -67 -173q-65 -65 -152 -65q-100 0 -161 64q-66 68 -66 171q0 123 98 193q57 40 129 40zM272 22q58 0 84 41q35 51 35 155q0 101 -43 159q-37 47 -90 47q-55 0 -88 -45t-33 -142q0 -110 45 -170q36 -45 90 -45zM305 530
l-22 -13l-153 151l3 13q13 5 49.5 11t42.5 4z" />
    <glyph glyph-name="oacute" unicode="&#xf3;" horiz-adv-x="528" 
d="M268 456q98 0 160 -68q59 -66 59 -162q0 -103 -67 -173q-65 -65 -152 -65q-100 0 -161 64q-66 68 -66 171q0 123 98 193q57 40 129 40zM272 22q58 0 84 41q35 51 35 155q0 101 -43 159q-37 47 -90 47q-55 0 -88 -45t-33 -142q0 -110 45 -170q36 -45 90 -45zM227 517
l-23 15l102 163q6 2 37.5 -7t46.5 -16l-1 -11z" />
    <glyph glyph-name="ocircumflex" unicode="&#xf4;" horiz-adv-x="528" 
d="M268 456q98 0 160 -68q59 -66 59 -162q0 -103 -67 -173q-65 -65 -152 -65q-100 0 -161 64q-66 68 -66 171q0 123 98 193q57 40 129 40zM272 22q58 0 84 41q35 51 35 155q0 101 -43 159q-37 47 -90 47q-55 0 -88 -45t-33 -142q0 -110 45 -170q36 -45 90 -45zM395 538
l-24 -19l-110 95l-106 -95l-23 19q54 76 116 168h27q41 -65 120 -168z" />
    <glyph glyph-name="otilde" unicode="&#xf5;" horiz-adv-x="528" 
d="M268 456q98 0 160 -68q59 -66 59 -162q0 -103 -67 -173q-65 -65 -152 -65q-100 0 -161 64q-66 68 -66 171q0 123 98 193q57 40 129 40zM272 22q58 0 84 41q35 51 35 155q0 101 -43 159q-37 47 -90 47q-55 0 -88 -45t-33 -142q0 -110 45 -170q36 -45 90 -45zM397 661
l25 -8q-6 -37 -29.5 -69t-66.5 -32q-32 0 -80 24q-43 18 -62 18q-21 0 -32.5 -10.5t-22.5 -35.5l-25 9q6 43 30.5 70.5t64.5 27.5q31 0 80 -22q43 -19 62 -19t32 9t24 38z" />
    <glyph glyph-name="odieresis" unicode="&#xf6;" horiz-adv-x="528" 
d="M268 456q98 0 160 -68q59 -66 59 -162q0 -103 -67 -173q-65 -65 -152 -65q-100 0 -161 64q-66 68 -66 171q0 123 98 193q57 40 129 40zM272 22q58 0 84 41q35 51 35 155q0 101 -43 159q-37 47 -90 47q-55 0 -88 -45t-33 -142q0 -110 45 -170q36 -45 90 -45zM173 658
q21 0 34 -14.5t13 -35.5q0 -25 -14.5 -37.5t-34.5 -12.5q-17 0 -32 13.5t-15 35.5q0 21 13.5 36t35.5 15zM352 657q23 0 36 -15t13 -34q0 -20 -14 -35t-36 -15q-19 0 -33 14t-14 35q0 23 14 36.5t34 13.5z" />
    <glyph glyph-name="divide" unicode="&#xf7;" horiz-adv-x="636" 
d="M319 365q-19 0 -36 14.5t-17 40.5q0 24 15 39.5t38 15.5t38.5 -15.5t15.5 -39.5q0 -25 -17 -40t-37 -15zM319 4q-18 0 -35.5 14.5t-17.5 39.5q0 24 15 40t38 16t38.5 -16t15.5 -39q0 -25 -17.5 -40t-36.5 -15zM562 213h-487v58h487v-58z" />
    <glyph glyph-name="oslash" unicode="&#xf8;" horiz-adv-x="528" 
d="M444 458l-36 -52q79 -66 79 -183q0 -101 -63 -170t-161 -69q-68 0 -121 36l-42 -61l-26 19l43 62q-76 66 -76 179q0 105 65.5 171t160.5 66q66 0 116 -32l36 52zM156 97l196 283q-35 45 -92 45q-54 0 -89.5 -52.5t-35.5 -146.5q0 -79 21 -129zM369 350l-196 -284
q35 -51 101 -51q52 0 86 50.5t34 146.5q0 84 -25 138z" />
    <glyph glyph-name="ugrave" unicode="&#xf9;" horiz-adv-x="529" 
d="M506 37v-28q-122 -15 -141 -21l-5 5q-1 14 -1 54q-74 -59 -146 -59q-52 0 -90.5 37t-38.5 103v248q0 27 -60 39v29q109 0 148 9q-5 -75 -5 -115v-216q0 -33 27 -57t67 -24q46 0 73 19q25 19 25 63v251q0 9 -3 14.5t-21 13.5t-53 13l5 29q119 0 159 6q-5 -30 -5 -158v-221
q0 -21 14 -26q15 -6 51 -8zM292 530l-21 -13l-153 151l2 13q13 5 49.5 11t43.5 4z" />
    <glyph glyph-name="uacute" unicode="&#xfa;" horiz-adv-x="529" 
d="M506 37v-28q-122 -15 -141 -21l-5 5q-1 14 -1 54q-74 -59 -146 -59q-52 0 -90.5 37t-38.5 103v248q0 27 -60 39v29q109 0 148 9q-5 -75 -5 -115v-216q0 -33 27 -57t67 -24q46 0 73 19q25 19 25 63v251q0 9 -3 14.5t-21 13.5t-53 13l5 29q119 0 159 6q-5 -30 -5 -158v-221
q0 -21 14 -26q15 -6 51 -8zM229 517l-23 15l102 163q6 2 37.5 -7t46.5 -16l-1 -11z" />
    <glyph glyph-name="ucircumflex" unicode="&#xfb;" horiz-adv-x="529" 
d="M506 37v-28q-122 -15 -141 -21l-5 5q-1 14 -1 54q-74 -59 -146 -59q-52 0 -90.5 37t-38.5 103v248q0 27 -60 39v29q109 0 148 9q-5 -75 -5 -115v-216q0 -33 27 -57t67 -24q46 0 73 19q25 19 25 63v251q0 9 -3 14.5t-21 13.5t-53 13l5 29q119 0 159 6q-5 -30 -5 -158v-221
q0 -21 14 -26q15 -6 51 -8zM383 538l-24 -19l-110 95l-106 -95l-23 19q26 36 117 168h26q41 -65 120 -168z" />
    <glyph glyph-name="udieresis" unicode="&#xfc;" horiz-adv-x="529" 
d="M506 37v-28q-122 -15 -141 -21l-5 5q-1 14 -1 54q-74 -59 -146 -59q-52 0 -90.5 37t-38.5 103v248q0 27 -60 39v29q109 0 148 9q-5 -75 -5 -115v-216q0 -33 27 -57t67 -24q46 0 73 19q25 19 25 63v251q0 9 -3 14.5t-21 13.5t-53 13l5 29q119 0 159 6q-5 -30 -5 -158v-221
q0 -21 14 -26q15 -6 51 -8zM159 658q21 0 34 -14.5t13 -35.5q0 -25 -14.5 -37.5t-34.5 -12.5q-17 0 -32 13.5t-15 35.5q0 21 13.5 36t35.5 15zM338 657q23 0 36 -15t13 -34q0 -20 -14 -35t-36 -15q-19 0 -33 14t-14 35q0 23 14 36.5t34 13.5z" />
    <glyph glyph-name="yacute" unicode="&#xfd;" horiz-adv-x="476" 
d="M-7 414v30h218v-30q-35 -3 -45 -5q-23 -5 -14 -29q78 -207 112 -280q48 130 94 267q12 34 -14 40q-17 4 -55 7v30h180v-30q-22 -4 -31 -7t-19 -13t-18 -29q-36 -87 -122 -323q-12 -33 -30.5 -86.5t-21.5 -60.5q-28 -77 -55 -109t-65 -32q-22 0 -39.5 15.5t-17.5 36.5
q0 26 16.5 44.5t33.5 18.5q9 0 34 -20q13 -11 22 -11q11 0 25 31q15 35 41 121q-5 18 -69.5 177.5t-86.5 206.5q-8 17 -20 25.5t-19.5 9.5t-33.5 5zM231 517l-23 15l102 163q6 2 37.5 -7t46.5 -16l-1 -11z" />
    <glyph glyph-name="thorn" unicode="&#xfe;" horiz-adv-x="525" 
d="M252 -232h-251v30q51 2 63 11.5t14 43.5q2 46 2 143v575q0 42 -3 54q-8 22 -66 34v25q89 3 153 24l4 -2q-5 -40 -5 -85v-218q68 49 140 49q65 0 115 -50q66 -63 66 -165q0 -108 -72 -182q-67 -67 -160 -67q-41 0 -89 13q0 -129 1 -149q2 -33 15 -42t73 -12v-30zM163 300
v-163q0 -47 9 -61q15 -25 44 -39.5t55 -14.5q50 0 83 50q38 53 38 145q0 87 -36 137q-38 52 -94 52q-38 0 -63 -14q-23 -12 -29.5 -29.5t-6.5 -62.5z" />
    <glyph glyph-name="ydieresis" unicode="&#xff;" horiz-adv-x="476" 
d="M-7 414v30h218v-30q-35 -3 -45 -5q-23 -5 -14 -29q78 -207 112 -280q48 130 94 267q12 34 -14 40q-17 4 -55 7v30h180v-30q-22 -4 -31 -7t-19 -13t-18 -29q-36 -87 -122 -323q-12 -33 -30.5 -86.5t-21.5 -60.5q-28 -77 -55 -109t-65 -32q-22 0 -39.5 15.5t-17.5 36.5
q0 26 16.5 44.5t33.5 18.5q9 0 34 -20q13 -11 22 -11q11 0 25 31q15 35 41 121q-5 18 -69.5 177.5t-86.5 206.5q-8 17 -20 25.5t-19.5 9.5t-33.5 5zM154 658q21 0 34 -14.5t13 -35.5q0 -25 -14.5 -37.5t-34.5 -12.5q-17 0 -31.5 13.5t-14.5 35.5q0 21 13.5 36t34.5 15z
M334 657q22 0 35 -15t13 -34q0 -20 -14 -35t-35 -15q-19 0 -33.5 14t-14.5 35q0 23 14.5 36.5t34.5 13.5z" />
    <glyph glyph-name="Amacron" unicode="&#x100;" horiz-adv-x="675" 
d="M-6 0v30q54 6 75 17.5t37 51.5q104 265 194 502q7 19 5 44h72q2 -8 8 -24q27 -70 71 -189.5t82.5 -225t44.5 -121.5q12 -30 32 -40.5t65 -14.5v-30h-265v30q36 4 51 8q28 6 18 36q-31 92 -58 162h-224q-41 -111 -52 -145q-7 -27 -0.5 -38t28.5 -15q35 -6 53 -8v-30h-237z
M214 273h200l-98 277q-63 -167 -102 -277zM213 768h265v-54h-265v54z" />
    <glyph glyph-name="amacron" unicode="&#x101;" horiz-adv-x="447" 
d="M429 60v-27q-21 -24 -48.5 -36t-44.5 -12q-46 0 -61 59q-75 -59 -127 -59q-37 0 -66 31.5t-29 77.5q0 34 17 54t54 39q50 25 155 69q0 75 -1 82q-3 22 -26.5 46t-57.5 24q-9 0 -28 -9t-33 -20q-11 -8 -11 -14q0 -5 3 -11q14 -23 14 -38q0 -14 -16 -30t-36 -16
q-17 0 -31 14.5t-14 36.5q0 27 44 59q51 37 92 56.5t58 19.5q68 0 104 -62q17 -26 17 -88q0 -20 -1.5 -117.5t-1.5 -127.5q0 -19 24 -19q22 0 51 18zM278 228q-83 -36 -101 -48q-21 -14 -31 -27.5t-10 -37.5q0 -36 24 -60q16 -16 41 -16q32 0 56 20q17 17 18 41q3 60 3 128z
M91 627h248v-54h-248v54z" />
    <glyph glyph-name="Abreve" unicode="&#x102;" horiz-adv-x="675" 
d="M-6 0v30q54 6 75 17.5t37 51.5q104 265 194 502q7 19 5 44h72q2 -8 8 -24q27 -70 71 -189.5t82.5 -225t44.5 -121.5q12 -30 32 -40.5t65 -14.5v-30h-265v30q36 4 51 8q28 6 18 36q-31 92 -58 162h-224q-41 -111 -52 -145q-7 -27 -0.5 -38t28.5 -15q35 -6 53 -8v-30h-237z
M214 273h200l-98 277q-63 -167 -102 -277zM477 823l26 -9q-20 -57 -63 -89t-103 -32q-65 0 -104 34.5t-52 86.5l26 9q11 -18 23 -29t40.5 -21.5t69.5 -10.5q44 0 72.5 10t39 20t25.5 31z" />
    <glyph glyph-name="abreve" unicode="&#x103;" horiz-adv-x="447" 
d="M429 60v-27q-21 -24 -48.5 -36t-44.5 -12q-46 0 -61 59q-75 -59 -127 -59q-37 0 -66 31.5t-29 77.5q0 34 17 54t54 39q50 25 155 69q0 75 -1 82q-3 22 -26.5 46t-57.5 24q-9 0 -28 -9t-33 -20q-11 -8 -11 -14q0 -5 3 -11q14 -23 14 -38q0 -14 -16 -30t-36 -16
q-17 0 -31 14.5t-14 36.5q0 27 44 59q51 37 92 56.5t58 19.5q68 0 104 -62q17 -26 17 -88q0 -20 -1.5 -117.5t-1.5 -127.5q0 -19 24 -19q22 0 51 18zM278 228q-83 -36 -101 -48q-21 -14 -31 -27.5t-10 -37.5q0 -36 24 -60q16 -16 41 -16q32 0 56 20q17 17 18 41q3 60 3 128z
M338 679l26 -5q-14 -60 -51 -96.5t-97 -36.5q-62 0 -97.5 36.5t-44.5 96.5l29 5q29 -70 117 -70q84 0 118 70z" />
    <glyph glyph-name="Aogonek" unicode="&#x104;" horiz-adv-x="675" 
d="M680 0h-96q-65 -65 -65 -122q0 -26 14.5 -40t36.5 -14q31 0 62 23l10 -23q-19 -31 -50 -46.5t-61 -15.5q-41 0 -64.5 24t-23.5 59q0 70 109 155h-137v30q36 4 51 8q28 6 18 36q-31 92 -58 162h-224q-41 -111 -52 -145q-7 -27 -0.5 -38t28.5 -15q35 -6 53 -8v-30h-237v30
q54 6 75 17.5t37 51.5q104 265 194 502q7 19 5 44h72q2 -8 8 -24q27 -70 71 -189.5t82.5 -225t44.5 -121.5q12 -30 32 -40.5t65 -14.5v-30zM214 273h200l-98 277q-63 -167 -102 -277z" />
    <glyph glyph-name="aogonek" unicode="&#x105;" horiz-adv-x="447" 
d="M422 -156v-22q-38 -60 -109 -60q-40 0 -63 24t-23 59q0 58 111 140h-2q-46 0 -61 59q-75 -59 -127 -59q-37 0 -66 31.5t-29 77.5q0 34 17 54t54 39q50 25 155 69q0 75 -1 82q-3 22 -26.5 46t-57.5 24q-9 0 -28 -9t-33 -20q-11 -8 -11 -14q0 -5 3 -11q14 -23 14 -38
q0 -14 -16 -30t-36 -16q-17 0 -31 14.5t-14 36.5q0 27 44 59q51 37 92 56.5t58 19.5q68 0 104 -62q17 -26 17 -88q0 -20 -1.5 -117.5t-1.5 -127.5q0 -19 24 -19q22 0 51 18v-27q-13 -15 -37 -30q-44 -34 -66.5 -69.5t-22.5 -59.5q0 -50 48 -50q42 0 71 20zM275 100
q3 60 3 128q-83 -36 -101 -48q-21 -14 -31 -27.5t-10 -37.5q0 -36 24 -60q16 -16 41 -16q32 0 56 20q17 17 18 41z" />
    <glyph glyph-name="Cacute" unicode="&#x106;" horiz-adv-x="691" 
d="M627 455l-28 -8q-45 115 -103 150q-43 28 -104 28q-108 0 -168.5 -78t-60.5 -217q0 -134 62.5 -220.5t182.5 -86.5q34 0 64 11q67 26 138 141l27 -14q-26 -52 -73 -157q-10 -1 -47 -8q-65 -12 -113 -12q-156 0 -252 91t-96 251q0 77 30 146.5t90 116.5q92 72 221 72
q82 0 150 -29q23 9 37 21h20q0 -69 23 -198zM333 700l-15 21l140 133q11 0 42 -12.5t42 -19.5l-1 -16z" />
    <glyph glyph-name="cacute" unicode="&#x107;" horiz-adv-x="448" 
d="M411 104l16 -19q-66 -97 -175 -97q-97 0 -156 66q-55 63 -55 162q0 114 92 190q61 50 148 50q67 0 101.5 -23t34.5 -48q0 -19 -14 -34.5t-33 -15.5t-40 24q-7 8 -19 27.5t-18 25.5q-8 10 -38 10q-34 0 -64 -23q-56 -44 -56 -161q0 -91 41 -146q40 -52 101 -52
q82 0 134 64zM231 517l-22 15l101 163q6 2 38 -7t47 -16l-1 -11z" />
    <glyph glyph-name="Ccircumflex" unicode="&#x108;" horiz-adv-x="691" 
d="M627 455l-28 -8q-45 115 -103 150q-43 28 -104 28q-108 0 -168.5 -78t-60.5 -217q0 -134 62.5 -220.5t182.5 -86.5q34 0 64 11q67 26 138 141l27 -14q-26 -52 -73 -157q-10 -1 -47 -8q-65 -12 -113 -12q-156 0 -252 91t-96 251q0 77 30 146.5t90 116.5q92 72 221 72
q82 0 150 -29q23 9 37 21h20q0 -69 23 -198zM545 733l-15 -25q-22 8 -75 31t-72 31q-14 -6 -46 -19.5t-59 -24.5t-44 -18l-12 25q42 27 150 115h25q10 -8 39 -31.5t56 -44.5t53 -39z" />
    <glyph glyph-name="ccircumflex" unicode="&#x109;" horiz-adv-x="448" 
d="M411 104l16 -19q-66 -97 -175 -97q-97 0 -156 66q-55 63 -55 162q0 114 92 190q61 50 148 50q67 0 101.5 -23t34.5 -48q0 -19 -14 -34.5t-33 -15.5t-40 24q-7 8 -19 27.5t-18 25.5q-8 10 -38 10q-34 0 -64 -23q-56 -44 -56 -161q0 -91 41 -146q40 -52 101 -52
q82 0 134 64zM389 538l-24 -19l-110 95l-106 -95l-23 19q73 102 117 168h26q41 -65 120 -168z" />
    <glyph glyph-name="Cdotaccent" unicode="&#x10a;" horiz-adv-x="691" 
d="M627 455l-28 -8q-45 115 -103 150q-43 28 -104 28q-108 0 -168.5 -78t-60.5 -217q0 -134 62.5 -220.5t182.5 -86.5q34 0 64 11q67 26 138 141l27 -14q-26 -52 -73 -157q-10 -1 -47 -8q-65 -12 -113 -12q-156 0 -252 91t-96 251q0 77 30 146.5t90 116.5q92 72 221 72
q82 0 150 -29q23 9 37 21h20q0 -69 23 -198zM328 777q0 21 14 38.5t39 17.5q22 0 36.5 -17t14.5 -39q0 -23 -14.5 -38.5t-37.5 -15.5q-24 0 -38 16.5t-14 37.5z" />
    <glyph glyph-name="cdotaccent" unicode="&#x10b;" horiz-adv-x="448" 
d="M411 104l16 -19q-66 -97 -175 -97q-97 0 -156 66q-55 63 -55 162q0 114 92 190q61 50 148 50q67 0 101.5 -23t34.5 -48q0 -19 -14 -34.5t-33 -15.5t-40 24q-7 8 -19 27.5t-18 25.5q-8 10 -38 10q-34 0 -64 -23q-56 -44 -56 -161q0 -91 41 -146q40 -52 101 -52
q82 0 134 64zM198 605q0 21 14.5 39.5t40.5 18.5q23 0 37.5 -17.5t14.5 -40.5q0 -24 -14.5 -40t-38.5 -16q-25 0 -39.5 17t-14.5 39z" />
    <glyph glyph-name="Ccaron" unicode="&#x10c;" horiz-adv-x="691" 
d="M627 455l-28 -8q-45 115 -103 150q-43 28 -104 28q-108 0 -168.5 -78t-60.5 -217q0 -134 62.5 -220.5t182.5 -86.5q34 0 64 11q67 26 138 141l27 -14q-26 -52 -73 -157q-10 -1 -47 -8q-65 -12 -113 -12q-156 0 -252 91t-96 251q0 77 30 146.5t90 116.5q92 72 221 72
q82 0 150 -29q23 9 37 21h20q0 -69 23 -198zM218 828l14 26q23 -9 77 -32.5t71 -30.5q112 49 148 63l12 -26q-64 -41 -149 -115h-26q-100 84 -147 115z" />
    <glyph glyph-name="ccaron" unicode="&#x10d;" horiz-adv-x="448" 
d="M411 104l16 -19q-66 -97 -175 -97q-97 0 -156 66q-55 63 -55 162q0 114 92 190q61 50 148 50q67 0 101.5 -23t34.5 -48q0 -19 -14 -34.5t-33 -15.5t-40 24q-7 8 -19 27.5t-18 25.5q-8 10 -38 10q-34 0 -64 -23q-56 -44 -56 -161q0 -91 41 -146q40 -52 101 -52
q82 0 134 64zM123 699l24 19l110 -95l106 95l23 -19q-67 -94 -116 -167h-27q-42 65 -120 167z" />
    <glyph glyph-name="Dcaron" unicode="&#x10e;" horiz-adv-x="722" 
d="M221 553v-419q0 -66 9 -73q29 -28 103 -28q100 0 161 78q68 82 68 217q0 162 -97 237q-61 48 -152 48q-71 0 -84 -14q-8 -8 -8 -46zM34 0v30q58 3 76 15t18 46v463q0 33 -19 45.5t-75 15.5v30h283q126 0 202 -40q73 -38 110.5 -108.5t37.5 -158.5q0 -143 -93 -236
q-45 -47 -113.5 -74.5t-146.5 -27.5h-280zM164 811l14 26q23 -9 77 -32.5t71 -30.5q112 49 148 63l12 -26q-64 -41 -149 -115h-26q-100 84 -147 115z" />
    <glyph glyph-name="dcaron" unicode="&#x10f;" horiz-adv-x="553" 
d="M368 116v195q0 39 -4.5 53.5t-18.5 28.5q-30 30 -81 30q-50 0 -80 -30q-47 -47 -47 -161q0 -106 45 -158q36 -42 91 -42q41 0 67 17q28 19 28 67zM515 35v-29q-103 -10 -137 -19l-5 3q-5 20 -5 44q-72 -46 -140 -46q-77 0 -128 59q-59 64 -59 165q0 127 100 199
q65 45 146 45q39 0 81 -10q0 171 -3 179q-8 21 -74 35v27q100 4 159 27l5 -2q-5 -55 -5 -84v-528q0 -43 9 -49q18 -14 56 -16zM550 469h-27q-1 10 -11 96.5t-14 111.5v18q18 7 39 7q23 0 40 -5v-19q-2 -14 -7.5 -62.5t-11 -89t-8.5 -57.5z" />
    <glyph glyph-name="Dcroat" unicode="&#x110;" horiz-adv-x="722" 
d="M34 645h283q126 0 202 -40q73 -38 110.5 -108.5t37.5 -158.5q0 -143 -93 -236q-45 -47 -113.5 -74.5t-146.5 -27.5h-280v30q58 3 76 15t18 46v224h-89v42h89v197q0 33 -19 45.5t-75 15.5v30zM221 315v-181q0 -66 9 -73q29 -28 103 -28q100 0 161 78q68 82 68 217
q0 162 -97 237q-61 48 -152 48q-71 0 -84 -14q-8 -8 -8 -46v-196h170v-42h-170z" />
    <glyph glyph-name="dcroat" unicode="&#x111;" horiz-adv-x="536" 
d="M450 530v-430q0 -43 9 -49q18 -14 56 -16v-29q-103 -10 -137 -19l-5 3q-5 20 -5 44q-72 -46 -140 -46q-77 0 -128 59q-59 64 -59 165q0 127 100 199q65 45 146 45q39 0 81 -10v84h-146v37h146q0 47 -3 58q-8 21 -74 35v27q100 4 159 27l5 -2q-5 -55 -5 -84v-61h53v-37
h-53zM368 116v195q0 39 -4.5 53.5t-18.5 28.5q-30 30 -81 30q-50 0 -80 -30q-47 -47 -47 -161q0 -106 45 -158q36 -42 91 -42q41 0 67 17q28 19 28 67z" />
    <glyph glyph-name="Emacron" unicode="&#x112;" horiz-adv-x="627" 
d="M401 0h-377v30q66 3 85 14t19 47v463q0 37 -19 47t-75 14v30h358q99 0 131 6q4 -75 26 -171l-27 -8q-49 105 -92 129q-16 9 -62 9h-117q-19 0 -24.5 -8t-5.5 -33v-221h100q45 0 60 22t25 85h29q0 -4 -2 -51t-2 -73q0 -49 4 -129h-30q-14 73 -26 88q-15 21 -58 21h-100
v-204q0 -47 15.5 -59.5t69.5 -12.5h71q41 0 57 3t34 14q49 31 107 143l28 -10q-35 -86 -58 -189q-76 4 -144 4zM180 777h265v-54h-265v54z" />
    <glyph glyph-name="emacron" unicode="&#x113;" horiz-adv-x="463" 
d="M406 105l18 -19q-65 -98 -182 -98q-48 0 -89.5 21t-66.5 56q-45 64 -45 151q0 65 26.5 118.5t70.5 85.5q48 36 115 36q82 0 127 -51t45 -115q0 -38 -9 -39q-27 -3 -283 -3q-1 -8 -1 -17q0 -102 47 -152q39 -40 98 -40q76 0 129 66zM135 278q122 0 175 3q19 1 24.5 9
t5.5 27q0 38 -24.5 73.5t-72.5 35.5q-41 0 -71.5 -37t-36.5 -111zM119 627h248v-54h-248v54z" />
    <glyph glyph-name="Ebreve" unicode="&#x114;" horiz-adv-x="627" 
d="M401 0h-377v30q66 3 85 14t19 47v463q0 37 -19 47t-75 14v30h358q99 0 131 6q4 -75 26 -171l-27 -8q-49 105 -92 129q-16 9 -62 9h-117q-19 0 -24.5 -8t-5.5 -33v-221h100q45 0 60 22t25 85h29q0 -4 -2 -51t-2 -73q0 -49 4 -129h-30q-14 73 -26 88q-15 21 -58 21h-100
v-204q0 -47 15.5 -59.5t69.5 -12.5h71q41 0 57 3t34 14q49 31 107 143l28 -10q-35 -86 -58 -189q-76 4 -144 4zM444 838l26 -9q-20 -57 -62.5 -89t-102.5 -32q-65 0 -105 34.5t-52 86.5l26 9q11 -18 23 -29t41 -21.5t70 -10.5q43 0 71.5 10t39 20t25.5 31z" />
    <glyph glyph-name="ebreve" unicode="&#x115;" horiz-adv-x="464" 
d="M406 105l18 -19q-65 -98 -182 -98q-48 0 -89.5 21t-66.5 56q-45 64 -45 151q0 65 26.5 118.5t70.5 85.5q48 36 115 36q82 0 127 -51t45 -115q0 -38 -9 -39q-27 -3 -283 -3q-1 -8 -1 -17q0 -102 47 -152q39 -40 98 -40q76 0 129 66zM135 278q122 0 175 3q19 1 24.5 9
t5.5 27q0 38 -24.5 73.5t-72.5 35.5q-41 0 -71.5 -37t-36.5 -111zM359 679l26 -5q-14 -60 -51 -96.5t-97 -36.5q-62 0 -97.5 36.5t-44.5 96.5l29 5q29 -70 117 -70q84 0 118 70z" />
    <glyph glyph-name="Edotaccent" unicode="&#x116;" horiz-adv-x="627" 
d="M401 0h-377v30q66 3 85 14t19 47v463q0 37 -19 47t-75 14v30h358q99 0 131 6q4 -75 26 -171l-27 -8q-49 105 -92 129q-16 9 -62 9h-117q-19 0 -24.5 -8t-5.5 -33v-221h100q45 0 60 22t25 85h29q0 -4 -2 -51t-2 -73q0 -49 4 -129h-30q-14 73 -26 88q-15 21 -58 21h-100
v-204q0 -47 15.5 -59.5t69.5 -12.5h71q41 0 57 3t34 14q49 31 107 143l28 -10q-35 -86 -58 -189q-76 4 -144 4zM262 770q0 21 14 38.5t39 17.5q22 0 36 -17t14 -39q0 -24 -14 -39t-37 -15q-24 0 -38 16.5t-14 37.5z" />
    <glyph glyph-name="edotaccent" unicode="&#x117;" horiz-adv-x="464" 
d="M406 105l18 -19q-65 -98 -182 -98q-48 0 -89.5 21t-66.5 56q-45 64 -45 151q0 65 26.5 118.5t70.5 85.5q48 36 115 36q82 0 127 -51t45 -115q0 -38 -9 -39q-27 -3 -283 -3q-1 -8 -1 -17q0 -102 47 -152q39 -40 98 -40q76 0 129 66zM135 278q122 0 175 3q19 1 24.5 9
t5.5 27q0 38 -24.5 73.5t-72.5 35.5q-41 0 -71.5 -37t-36.5 -111zM185 605q0 21 14.5 39.5t40.5 18.5q23 0 37.5 -17.5t14.5 -40.5q0 -24 -14.5 -40t-38.5 -16q-25 0 -39.5 17t-14.5 39z" />
    <glyph glyph-name="Eogonek" unicode="&#x118;" horiz-adv-x="627" 
d="M575 195l28 -10q-35 -86 -58 -189q-3 0 -47 2q-63 -64 -63 -120q0 -25 14.5 -39.5t36.5 -14.5q32 0 63 23l10 -23q-19 -31 -50 -46.5t-62 -15.5q-40 0 -64 24t-24 59q0 69 109 154q-22 1 -67 1h-377v30q66 3 85 14t19 47v463q0 37 -19 47t-75 14v30h358q99 0 131 6
q4 -75 26 -171l-27 -8q-49 105 -92 129q-16 9 -62 9h-117q-19 0 -24.5 -8t-5.5 -33v-221h100q45 0 60 22t25 85h29q0 -4 -2 -51t-2 -73q0 -49 4 -129h-30q-14 73 -26 88q-15 21 -58 21h-100v-204q0 -47 15.5 -59.5t69.5 -12.5h71q41 0 57 3t34 14q49 31 107 143z" />
    <glyph glyph-name="eogonek" unicode="&#x119;" horiz-adv-x="463" 
d="M390 -147v-24q-42 -61 -108 -61q-41 0 -64 23.5t-23 60.5q0 61 100 142q-25 -6 -53 -6q-48 0 -89.5 21t-66.5 56q-45 64 -45 151q0 65 26.5 118.5t70.5 85.5q48 36 115 36q82 0 127 -51t45 -115q0 -38 -9 -39q-27 -3 -283 -3q-1 -8 -1 -17q0 -102 47 -152q39 -40 98 -40
q76 0 129 66l18 -19q-32 -48 -76 -72q-76 -73 -76 -132q0 -52 47 -52q43 0 71 23zM243 426q-41 0 -71.5 -37t-36.5 -111q122 0 175 3q19 1 24.5 9t5.5 27q0 38 -24.5 73.5t-72.5 35.5z" />
    <glyph glyph-name="Ecaron" unicode="&#x11a;" horiz-adv-x="627" 
d="M401 0h-377v30q66 3 85 14t19 47v463q0 37 -19 47t-75 14v30h358q99 0 131 6q4 -75 26 -171l-27 -8q-49 105 -92 129q-16 9 -62 9h-117q-19 0 -24.5 -8t-5.5 -33v-221h100q45 0 60 22t25 85h29q0 -4 -2 -51t-2 -73q0 -49 4 -129h-30q-14 73 -26 88q-15 21 -58 21h-100
v-204q0 -47 15.5 -59.5t69.5 -12.5h71q41 0 57 3t34 14q49 31 107 143l28 -10q-35 -86 -58 -189q-76 4 -144 4zM149 814l14 26q24 -10 78.5 -33.5t69.5 -29.5q111 49 149 63l11 -26q-53 -34 -149 -115h-25q-112 91 -148 115z" />
    <glyph glyph-name="ecaron" unicode="&#x11b;" horiz-adv-x="463" 
d="M406 105l18 -19q-65 -98 -182 -98q-48 0 -89.5 21t-66.5 56q-45 64 -45 151q0 65 26.5 118.5t70.5 85.5q48 36 115 36q82 0 127 -51t45 -115q0 -38 -9 -39q-27 -3 -283 -3q-1 -8 -1 -17q0 -102 47 -152q39 -40 98 -40q76 0 129 66zM135 278q122 0 175 3q19 1 24.5 9
t5.5 27q0 38 -24.5 73.5t-72.5 35.5q-41 0 -71.5 -37t-36.5 -111zM107 693l24 18l110 -94l106 94l23 -18q-54 -76 -116 -168h-27q-33 53 -120 168z" />
    <glyph glyph-name="Gcircumflex" unicode="&#x11c;" horiz-adv-x="724" 
d="M676 299v-31q-16 0 -41 -5q-32 -8 -32 -44v-151q0 -10 6.5 -14t27.5 -9v-21q-120 -40 -231 -40q-171 0 -264 98q-87 90 -87 245q0 170 128 267q89 67 218 67q77 0 157 -29q11 5 32 20h22q1 -36 9.5 -102t15.5 -96l-28 -8q-24 60 -48.5 96t-61.5 58q-43 26 -107 26
q-99 0 -164.5 -70.5t-65.5 -224.5q0 -151 78 -239q67 -74 169 -74q45 0 71 12q28 12 28 47v139q0 35 -35 44q-23 6 -69 9v30h272zM546 734l-14 -25q-23 9 -76.5 32t-71.5 30q-13 -6 -45 -19.5t-59 -24.5t-45 -18l-11 25q51 33 149 115h25q10 -8 39 -31.5t56 -44.5t53 -39z
" />
    <glyph glyph-name="gcircumflex" unicode="&#x11d;" horiz-adv-x="484" 
d="M241 -197q80 0 128 34.5t48 80.5q0 61 -93 61q-129 0 -150 -3q-28 -4 -45 -22q-33 -36 -33 -66q0 -39 39 -61q40 -24 106 -24zM217 427q-26 0 -48 -22q-29 -31 -29 -100q0 -58 19 -92q22 -42 74 -42q35 0 55 26q25 35 25 100q0 61 -24 95.5t-72 34.5zM228 456
q55 0 101 -25q64 40 109 40q25 0 39.5 -11.5t14.5 -26.5q0 -22 -13 -34.5t-26 -12.5q-8 0 -23 15q-5 4 -11 9.5t-9.5 8.5t-7.5 6t-7 4.5t-6 1.5q-13 0 -35 -18q45 -51 45 -111t-38 -105q-50 -56 -135 -56q-45 0 -71 10q-31 -31 -31 -58q0 -17 18.5 -25.5t38.5 -8.5
q11 0 51 1t79 1q93 0 130 -47q24 -29 24 -68q0 -77 -79 -137q-78 -55 -193 -55q-61 0 -106 21q-57 30 -57 82q0 51 90 121q-61 32 -61 76q0 24 22 54t54 53q-39 19 -60.5 55t-21.5 79q0 71 51 117q49 44 124 44zM362 538l-25 -19l-109 95l-106 -95l-23 19q54 76 116 168h27
q41 -65 120 -168z" />
    <glyph glyph-name="Gbreve" unicode="&#x11e;" horiz-adv-x="724" 
d="M676 299v-31q-16 0 -41 -5q-32 -8 -32 -44v-151q0 -10 6.5 -14t27.5 -9v-21q-120 -40 -231 -40q-171 0 -264 98q-87 90 -87 245q0 170 128 267q89 67 218 67q77 0 157 -29q11 5 32 20h22q1 -36 9.5 -102t15.5 -96l-28 -8q-24 60 -48.5 96t-61.5 58q-43 26 -107 26
q-99 0 -164.5 -70.5t-65.5 -224.5q0 -151 78 -239q67 -74 169 -74q45 0 71 12q28 12 28 47v139q0 35 -35 44q-23 6 -69 9v30h272zM531 852l26 -10q-20 -57 -62.5 -89t-102.5 -32q-65 0 -105 34.5t-52 86.5l26 10q11 -18 23 -29.5t41 -22t70 -10.5q43 0 71.5 10t39 20.5
t25.5 31.5z" />
    <glyph glyph-name="gbreve" unicode="&#x11f;" horiz-adv-x="484" 
d="M241 -197q80 0 128 34.5t48 80.5q0 61 -93 61q-129 0 -150 -3q-28 -4 -45 -22q-33 -36 -33 -66q0 -39 39 -61q40 -24 106 -24zM217 427q-26 0 -48 -22q-29 -31 -29 -100q0 -58 19 -92q22 -42 74 -42q35 0 55 26q25 35 25 100q0 61 -24 95.5t-72 34.5zM228 456
q55 0 101 -25q64 40 109 40q25 0 39.5 -11.5t14.5 -26.5q0 -22 -13 -34.5t-26 -12.5q-8 0 -23 15q-5 4 -11 9.5t-9.5 8.5t-7.5 6t-7 4.5t-6 1.5q-13 0 -35 -18q45 -51 45 -111t-38 -105q-50 -56 -135 -56q-45 0 -71 10q-31 -31 -31 -58q0 -17 18.5 -25.5t38.5 -8.5
q11 0 51 1t79 1q93 0 130 -47q24 -29 24 -68q0 -77 -79 -137q-78 -55 -193 -55q-61 0 -106 21q-57 30 -57 82q0 51 90 121q-61 32 -61 76q0 24 22 54t54 53q-39 19 -60.5 55t-21.5 79q0 71 51 117q49 44 124 44zM344 679l26 -5q-14 -60 -51 -96.5t-97 -36.5
q-62 0 -97.5 36.5t-44.5 96.5l29 5q29 -70 117 -70q84 0 118 70z" />
    <glyph glyph-name="Gdotaccent" unicode="&#x120;" horiz-adv-x="724" 
d="M676 299v-31q-16 0 -41 -5q-32 -8 -32 -44v-151q0 -10 6.5 -14t27.5 -9v-21q-120 -40 -231 -40q-171 0 -264 98q-87 90 -87 245q0 170 128 267q89 67 218 67q77 0 157 -29q11 5 32 20h22q1 -36 9.5 -102t15.5 -96l-28 -8q-24 60 -48.5 96t-61.5 58q-43 26 -107 26
q-99 0 -164.5 -70.5t-65.5 -224.5q0 -151 78 -239q67 -74 169 -74q45 0 71 12q28 12 28 47v139q0 35 -35 44q-23 6 -69 9v30h272zM336 773q0 20 14 38t39 18q22 0 36 -17t14 -39q0 -24 -14 -39.5t-37 -15.5q-25 0 -38.5 16.5t-13.5 38.5z" />
    <glyph glyph-name="gdotaccent" unicode="&#x121;" horiz-adv-x="484" 
d="M241 -197q80 0 128 34.5t48 80.5q0 61 -93 61q-129 0 -150 -3q-28 -4 -45 -22q-33 -36 -33 -66q0 -39 39 -61q40 -24 106 -24zM217 427q-26 0 -48 -22q-29 -31 -29 -100q0 -58 19 -92q22 -42 74 -42q35 0 55 26q25 35 25 100q0 61 -24 95.5t-72 34.5zM228 456
q55 0 101 -25q64 40 109 40q25 0 39.5 -11.5t14.5 -26.5q0 -22 -13 -34.5t-26 -12.5q-8 0 -23 15q-5 4 -11 9.5t-9.5 8.5t-7.5 6t-7 4.5t-6 1.5q-13 0 -35 -18q45 -51 45 -111t-38 -105q-50 -56 -135 -56q-45 0 -71 10q-31 -31 -31 -58q0 -17 18.5 -25.5t38.5 -8.5
q11 0 51 1t79 1q93 0 130 -47q24 -29 24 -68q0 -77 -79 -137q-78 -55 -193 -55q-61 0 -106 21q-57 30 -57 82q0 51 90 121q-61 32 -61 76q0 24 22 54t54 53q-39 19 -60.5 55t-21.5 79q0 71 51 117q49 44 124 44zM175 605q0 21 14.5 39.5t40.5 18.5q23 0 37.5 -17.5
t14.5 -40.5q0 -24 -14.5 -40t-38.5 -16q-25 0 -39.5 17t-14.5 39z" />
    <glyph glyph-name="uni0122" unicode="&#x122;" horiz-adv-x="724" 
d="M676 299v-31q-16 0 -41 -5q-32 -8 -32 -44v-151q0 -10 6.5 -14t27.5 -9v-21q-120 -40 -231 -40q-171 0 -264 98q-87 90 -87 245q0 170 128 267q89 67 218 67q77 0 157 -29q11 5 32 20h22q1 -36 9.5 -102t15.5 -96l-28 -8q-24 60 -48.5 96t-61.5 58q-43 26 -107 26
q-99 0 -164.5 -70.5t-65.5 -224.5q0 -151 78 -239q67 -74 169 -74q45 0 71 12q28 12 28 47v139q0 35 -35 44q-23 6 -69 9v30h272zM339 -274l-8 28q74 27 74 64q0 15 -10.5 23.5t-39.5 12.5q-33 7 -33 37q0 17 13.5 30.5t38.5 13.5q33 0 58.5 -23.5t25.5 -66.5
q0 -49 -36 -79.5t-83 -39.5z" />
    <glyph glyph-name="uni0123" unicode="&#x123;" horiz-adv-x="484" 
d="M241 -197q80 0 128 34.5t48 80.5q0 61 -93 61q-129 0 -150 -3q-28 -4 -45 -22q-33 -36 -33 -66q0 -39 39 -61q40 -24 106 -24zM217 427q-26 0 -48 -22q-29 -31 -29 -100q0 -58 19 -92q22 -42 74 -42q35 0 55 26q25 35 25 100q0 61 -24 95.5t-72 34.5zM228 456
q55 0 101 -25q64 40 109 40q25 0 39.5 -11.5t14.5 -26.5q0 -22 -13 -34.5t-26 -12.5q-8 0 -23 15q-5 4 -11 9.5t-9.5 8.5t-7.5 6t-7 4.5t-6 1.5q-13 0 -35 -18q45 -51 45 -111t-38 -105q-50 -56 -135 -56q-45 0 -71 10q-31 -31 -31 -58q0 -17 18.5 -25.5t38.5 -8.5
q11 0 51 1t79 1q93 0 130 -47q24 -29 24 -68q0 -77 -79 -137q-78 -55 -193 -55q-61 0 -106 21q-57 30 -57 82q0 51 90 121q-61 32 -61 76q0 24 22 54t54 53q-39 19 -60.5 55t-21.5 79q0 71 51 117q49 44 124 44zM275 735l8 -28q-74 -27 -74 -64q0 -15 10.5 -23.5t39.5 -12.5
q33 -5 33 -37q0 -17 -14 -30t-38 -13q-33 0 -58.5 23.5t-25.5 66.5q0 49 36 79t83 39z" />
    <glyph glyph-name="Hcircumflex" unicode="&#x124;" horiz-adv-x="759" 
d="M315 0h-281v30q57 4 75.5 15t18.5 46v463q0 36 -19 47t-75 14v30h281v-30q-56 -3 -75 -14.5t-19 -46.5v-199h317v199q0 35 -20 46.5t-74 14.5v30h281v-30q-22 -1 -33 -2.5t-25 -5t-20.5 -9.5t-11 -17t-4.5 -27v-463q0 -32 18 -45t76 -16v-30h-281v30q55 3 74.5 13.5
t19.5 47.5v227h-317v-227q0 -36 20 -46.5t74 -14.5v-30zM538 722l-15 -26q-19 8 -72 31t-75 32q-65 -29 -149 -63l-12 26q57 36 150 115h25q112 -91 148 -115z" />
    <glyph glyph-name="hcircumflex" unicode="&#x125;" horiz-adv-x="536" 
d="M247 766l-10 -23q-36 11 -124 48q-123 -47 -125 -48l-11 23q87 64 125 98h24q34 -32 121 -98zM239 0h-214v30q39 4 50.5 10.5t11.5 27.5v502q0 39 -4 55q-8 22 -59 35v25q80 6 147 31l4 -2q-5 -42 -5 -86v-236q62 64 139 64q60 0 96 -36q43 -44 43 -122v-229
q0 -24 10 -30.5t51 -8.5v-30h-219v30q37 4 48 6q19 5 23.5 20.5t4.5 81.5v166q0 48 -28 76q-24 23 -66 23q-54 0 -83 -27q-13 -14 -16 -25t-3 -43v-239q0 -24 11.5 -29t57.5 -10v-30z" />
    <glyph glyph-name="Hbar" unicode="&#x126;" horiz-adv-x="759" 
d="M632 439v-364q0 -26 20 -33q18 -9 76 -14v-28h-285v28q54 4 75 14q19 10 19 33v221h-315v-220q0 -15 4 -21.5t15 -12.5q35 -12 76 -14v-28h-284v28q50 4 73 14q21 12 21 34v363h-81v33h81v96q0 16 -3.5 22.5t-14.5 12.5q-31 12 -78 16v26h285v-26q-54 -7 -74 -15
q-11 -4 -15.5 -10.5t-4.5 -22.5v-99h315v98q0 9 -0.5 13t-5 10t-13.5 10q-18 7 -76 16v26h285v-26q-58 -8 -75 -15q-20 -9 -20 -32v-100h86v-33h-86zM222 337h315v102h-315v-102z" />
    <glyph glyph-name="hbar" unicode="&#x127;" horiz-adv-x="536" 
d="M448 288v-219q0 -24 10 -30.5t51 -8.5v-30h-219v30q37 4 48 6q19 5 23.5 20.5t4.5 81.5v156q0 48 -28 76q-24 23 -66 23q-54 0 -83 -27q-13 -14 -16 -25t-3 -43v-229q0 -24 11.5 -29t57.5 -10v-30h-214v30q39 4 50.5 10.5t11.5 27.5v464h-77v36h77v2q0 39 -4 55
q-8 22 -59 35v25q80 6 147 31l4 -2q-5 -42 -5 -86v-60h163v-36h-163v-150q62 64 139 64q60 0 96 -36q43 -44 43 -122z" />
    <glyph glyph-name="Itilde" unicode="&#x128;" horiz-adv-x="349" 
d="M315 0h-281v30q56 3 75 13.5t19 47.5v463q0 16 -5 26.5t-9 16t-20 10t-21 5t-30 2.5q-6 1 -9 1v30h281v-30q-52 -3 -73 -14t-21 -47v-463q0 -35 19 -46t75 -15v-30zM314 819l26 -7q-6 -36 -31.5 -69t-70.5 -33q-29 0 -83 24q-43 18 -65 18t-34 -10t-24 -36l-26 9
q8 42 34.5 70t71.5 28q26 0 79 -21q46 -19 62 -19q22 0 36 9t25 37z" />
    <glyph glyph-name="itilde" unicode="&#x129;" horiz-adv-x="262" 
d="M235 0h-214v30q48 4 59 9.5t11 29.5v231q0 38 -2.5 49.5t-10.5 18.5q-15 13 -42 27v19q74 12 134 42l6 -5q-2 -32 -2 -92v-289q0 -23 10 -29.5t51 -10.5v-30zM264 661l25 -8q-6 -37 -29.5 -69t-66.5 -32q-32 0 -80 24q-43 18 -62 18q-21 0 -32.5 -10.5t-22.5 -35.5l-25 9
q6 43 30.5 70.5t64.5 27.5q31 0 80 -22q43 -19 62 -19t32 9t24 38z" />
    <glyph glyph-name="Imacron" unicode="&#x12a;" horiz-adv-x="349" 
d="M315 0h-281v30q56 3 75 13.5t19 47.5v463q0 16 -5 26.5t-9 16t-20 10t-21 5t-30 2.5q-6 1 -9 1v30h281v-30q-52 -3 -73 -14t-21 -47v-463q0 -35 19 -46t75 -15v-30zM41 772h265v-54h-265v54z" />
    <glyph glyph-name="imacron" unicode="&#x12b;" horiz-adv-x="262" 
d="M235 0h-214v30q48 4 59 9.5t11 29.5v231q0 38 -2.5 49.5t-10.5 18.5q-15 13 -42 27v19q74 12 134 42l6 -5q-2 -32 -2 -92v-289q0 -23 10 -29.5t51 -10.5v-30zM1 627h248v-54h-248v54z" />
    <glyph glyph-name="Ibreve" unicode="&#x12c;" horiz-adv-x="349" 
d="M315 0h-281v30q56 3 75 13.5t19 47.5v463q0 16 -5 26.5t-9 16t-20 10t-21 5t-30 2.5q-6 1 -9 1v30h281v-30q-52 -3 -73 -14t-21 -47v-463q0 -35 19 -46t75 -15v-30zM306 832l26 -10q-20 -56 -62.5 -88t-102.5 -32q-66 0 -105 34.5t-52 85.5l26 10q11 -18 23 -29.5
t40.5 -22t69.5 -10.5q43 0 72 10t39.5 20.5t25.5 31.5z" />
    <glyph glyph-name="ibreve" unicode="&#x12d;" horiz-adv-x="262" 
d="M235 0h-214v30q48 4 59 9.5t11 29.5v231q0 38 -2.5 49.5t-10.5 18.5q-15 13 -42 27v19q74 12 134 42l6 -5q-2 -32 -2 -92v-289q0 -23 10 -29.5t51 -10.5v-30zM243 679l26 -5q-14 -60 -51 -96.5t-97 -36.5q-62 0 -97.5 36.5t-44.5 96.5l29 5q29 -70 117 -70q84 0 118 70z
" />
    <glyph glyph-name="Iogonek" unicode="&#x12e;" horiz-adv-x="349" 
d="M315 645v-30q-52 -3 -73 -14t-21 -47v-463q0 -35 19 -46t75 -15v-30h-104q-48 -58 -48 -122q0 -26 14.5 -40t36.5 -14q31 0 60 20l11 -19q-41 -63 -110 -63q-40 0 -64 25.5t-24 61.5q0 63 92 151h-145v30q56 3 75 13.5t19 47.5v463q0 16 -5 26.5t-9 16t-20 10t-21 5
t-30 2.5q-6 1 -9 1v30h281z" />
    <glyph glyph-name="iogonek" unicode="&#x12f;" horiz-adv-x="262" 
d="M124 549q-25 0 -39.5 17t-14.5 39q0 21 14.5 39.5t40.5 18.5q23 0 37.5 -17.5t14.5 -40.5q0 -24 -15 -40t-38 -16zM236 0h-68q-58 -70 -58 -126q0 -50 48 -50q36 0 70 23v-22q-20 -31 -51 -47t-60 -16q-39 0 -61 24t-22 59q0 72 105 155h-117v30q48 4 59 9.5t11 29.5v231
q0 38 -2.5 49.5t-10.5 18.5q-15 13 -42 27v19q74 12 134 42l6 -5q-3 -48 -3 -92v-289q0 -23 10 -29.5t52 -10.5v-30z" />
    <glyph glyph-name="Idotaccent" unicode="&#x130;" horiz-adv-x="349" 
d="M315 0h-281v30q56 3 75 13.5t19 47.5v463q0 16 -5 26.5t-9 16t-20 10t-21 5t-30 2.5q-6 1 -9 1v30h281v-30q-52 -3 -73 -14t-21 -47v-463q0 -35 19 -46t75 -15v-30zM121 759q0 21 14 38.5t39 17.5q22 0 36.5 -17t14.5 -39q0 -23 -14.5 -38.5t-37.5 -15.5q-24 0 -38 16.5
t-14 37.5z" />
    <glyph glyph-name="dotlessi" unicode="&#x131;" horiz-adv-x="262" 
d="M235 0h-214v30q48 4 59 9.5t11 29.5v231q0 38 -2.5 49.5t-10.5 18.5q-15 13 -42 27v19q74 12 134 42l6 -5q-2 -32 -2 -92v-289q0 -23 10 -29.5t51 -10.5v-30z" />
    <glyph glyph-name="IJ" unicode="&#x132;" horiz-adv-x="717" 
d="M315 0h-281v30q56 3 75 13.5t19 47.5v463q0 16 -5 26.5t-9 16t-20 10t-21 5t-30 2.5q-6 1 -9 1v30h281v-30q-52 -3 -73 -14t-21 -47v-463q0 -35 19 -46t75 -15v-30zM410 615v30h280v-30q-48 -2 -67.5 -14.5t-19.5 -46.5v-402q0 -75 -16 -132q-22 -74 -82 -137
q-30 -32 -70.5 -52.5t-67.5 -20.5q-33 0 -59 15t-26 37q0 21 18 40t34 19q13 0 40 -26q28 -27 51 -27q25 0 49 29q36 41 36 143v514q0 37 -20.5 47t-79.5 14z" />
    <glyph glyph-name="ij" unicode="&#x133;" horiz-adv-x="516" 
d="M235 0h-214v30q48 4 59 9.5t11 29.5v231q0 38 -2.5 49.5t-10.5 18.5q-15 13 -42 27v19q78 13 134 42l6 -5q-2 -32 -2 -92v-289q0 -23 10 -29.5t51 -10.5v-30zM69 605q0 21 14.5 39.5t40.5 18.5q23 0 37.5 -17.5t14.5 -40.5q0 -24 -14.5 -40t-38.5 -16q-25 0 -39.5 17
t-14.5 39zM286 389v24q74 10 148 43l6 -5q-4 -50 -4 -101v-289q0 -113 -21 -157q-26 -52 -66.5 -92.5t-65.5 -54.5l-19 22q57 52 73.5 95.5t16.5 107.5v355q0 21 -13 30q-23 17 -55 22zM335 606q0 21 14.5 39t40.5 18q22 0 37 -17t15 -40q0 -24 -15 -40.5t-38 -16.5
q-25 0 -39.5 17.5t-14.5 39.5z" />
    <glyph glyph-name="Jcircumflex" unicode="&#x134;" horiz-adv-x="368" 
d="M61 615v30h280v-30q-48 -2 -67.5 -14.5t-19.5 -46.5v-402q0 -75 -16 -132q-22 -74 -82 -137q-30 -32 -70.5 -52.5t-67.5 -20.5q-32 0 -58.5 15t-26.5 37q0 21 18 40t34 19q13 0 40 -26q28 -27 51 -27q25 0 50 29q35 42 35 143v514q0 37 -20.5 47t-79.5 14zM364 720
l-14 -25q-23 9 -76.5 32t-71.5 30q-13 -6 -45 -19.5t-59 -24.5t-45 -18l-11 25q51 33 149 115h25q10 -8 39 -31.5t56 -44.5t53 -39z" />
    <glyph glyph-name="jcircumflex" unicode="&#x135;" horiz-adv-x="254" 
d="M24 389v24q74 10 148 43l6 -5q-4 -50 -4 -101v-289q0 -113 -21 -157q-25 -52 -65.5 -92.5t-65.5 -54.5l-20 22q57 52 73.5 95.5t16.5 107.5v355q0 21 -13 30q-23 17 -55 22zM255 538l-25 -19l-109 95l-107 -95l-23 19q50 68 117 168h27q35 -57 120 -168z" />
    <glyph glyph-name="uni0136" unicode="&#x136;" horiz-adv-x="693" 
d="M315 0h-281v30q56 4 75 14.5t19 46.5v463q0 35 -19.5 46t-74.5 15v30h281v-30q-56 -3 -75 -15t-19 -46v-236q52 40 116 104t114 125q25 30 25 45q0 9 -18 14t-58 9v30h249v-30q-55 -4 -85 -20t-72 -60q-30 -32 -85 -87t-74 -75q-4 -4 1 -10q11 -17 107 -127.5t136 -152.5
q47 -47 126 -53v-30h-280v30q41 6 44 7q20 5 7 26q-15 20 -99 119.5t-107 124.5q-5 5 -10 0l-37 -29v-187q0 -36 19 -46.5t75 -14.5v-30zM301 -261l-8 28q74 27 74 64q0 15 -10.5 24t-39.5 13q-33 6 -33 36q0 17 14 30.5t38 13.5q33 0 58.5 -23.5t25.5 -66.5
q0 -49 -35.5 -79t-83.5 -40z" />
    <glyph glyph-name="uni0137" unicode="&#x137;" horiz-adv-x="500" 
d="M239 0h-214v30q41 3 51.5 10t10.5 31v499q0 40 -5 53q-3 8 -18.5 19t-40.5 18v25q75 5 148 31l4 -2q-5 -42 -5 -92v-391q60 43 144 129q23 24 23 35q0 8 -17 12q-19 5 -50 7v30h211v-30q-18 -1 -37 -5q-30 -6 -67 -36q-57 -48 -108 -99q-3 -4 0 -7q18 -26 75 -96.5
t87 -104.5q17 -19 34.5 -26.5t52.5 -9.5v-30h-230v30q52 4 52 15q0 3 -12 23q-25 37 -116 152q-4 6 -9 2q-21 -12 -33 -24v-129q0 -21 11.5 -28t57.5 -11v-30zM201 -274l-8 29q74 27 74 64q0 15 -10.5 23.5t-39.5 12.5q-33 5 -33 37q0 17 14 30t38 13q33 0 58.5 -23.5
t25.5 -66.5q0 -49 -35.5 -79t-83.5 -40z" />
    <glyph glyph-name="kgreenlandic" unicode="&#x138;" horiz-adv-x="493" 
d="M238 0h-218v30q41 4 48 6q22 6 22 31v302q0 20 -10.5 28t-47.5 19v24q98 0 143 15q-3 -66 -3 -83v-144q67 47 145 133q22 23 22 33q0 11 -16 13q-34 6 -51 7v30h211v-30q-33 -5 -44 -7q-28 -6 -60 -34q-19 -16 -109 -102q-4 -3 0 -7q17 -26 71 -94.5t83 -102.5
q15 -19 33.5 -27t53.5 -10v-30h-230v30q6 1 20 3t20 3q11 2 11 11q0 4 -11 22q-19 27 -110 146q-4 6 -9 2q-17 -10 -30 -20v-130q0 -10 1 -15t6 -9.5t15 -6.5q7 -1 44 -6v-30z" />
    <glyph glyph-name="Lacute" unicode="&#x139;" horiz-adv-x="616" 
d="M363 0h-338v30q65 5 84 15.5t19 45.5v463q0 34 -18.5 45.5t-75.5 15.5v30h281v-30q-54 -2 -74 -14t-20 -47v-452q0 -39 13.5 -53t58.5 -14h80q49 0 77 18q51 31 114 151l28 -11q-38 -91 -64 -196q-66 3 -165 3zM161 685l-16 22l140 132q11 1 42.5 -11.5t41.5 -20.5
l-1 -15z" />
    <glyph glyph-name="lacute" unicode="&#x13a;" horiz-adv-x="257" 
d="M74 760l114 118q11 -1 33.5 -16t32.5 -25v-12l-164 -85zM234 0h-209v30q42 3 52 11.5t10 34.5v493q0 43 -4 54q-2 8 -18 19.5t-43 17.5v25q70 4 149 31l4 -3q-5 -40 -5 -93v-546q0 -25 11 -33.5t53 -11.5v-29z" />
    <glyph glyph-name="uni013B" unicode="&#x13b;" horiz-adv-x="616" 
d="M363 0h-338v30q65 5 84 15.5t19 45.5v463q0 34 -18.5 45.5t-75.5 15.5v30h281v-30q-54 -2 -74 -14t-20 -47v-452q0 -39 13.5 -53t58.5 -14h80q49 0 77 18q51 31 114 151l28 -11q-38 -91 -64 -196q-66 3 -165 3zM251 -269l-8 28q74 27 74 64q0 15 -10.5 23.5t-39.5 12.5
q-33 7 -33 37q0 17 14 30.5t38 13.5q33 0 58.5 -23.5t25.5 -66.5q0 -49 -35.5 -79t-83.5 -40z" />
    <glyph glyph-name="uni013C" unicode="&#x13c;" horiz-adv-x="257" 
d="M234 0h-209v30q42 3 52 11.5t10 34.5v493q0 43 -4 54q-2 8 -18 19.5t-43 17.5v25q70 4 149 31l4 -3q-5 -40 -5 -93v-546q0 -25 11 -33.5t53 -11.5v-29zM78 -269l-8 28q74 27 74 64q0 15 -10.5 23.5t-39.5 12.5q-33 8 -33 37q0 17 14 30.5t38 13.5q33 0 58.5 -24t25.5 -67
q0 -49 -35.5 -79t-83.5 -39z" />
    <glyph glyph-name="Lcaron" unicode="&#x13d;" horiz-adv-x="616" 
d="M363 0h-338v30q65 5 84 15.5t19 45.5v463q0 34 -18.5 45.5t-75.5 15.5v30h281v-30q-54 -2 -74 -14t-20 -47v-452q0 -39 13.5 -53t58.5 -14h80q49 0 77 18q51 31 114 151l28 -11q-38 -91 -64 -196q-66 3 -165 3zM502 415h-30q-14 113 -31 219v18q16 9 47 9q30 0 47 -7v-19
q-3 -22 -9.5 -66t-14.5 -94t-9 -60z" />
    <glyph glyph-name="lcaron" unicode="&#x13e;" horiz-adv-x="279" 
d="M232 0h-209v30q42 3 52 11.5t10 34.5v493q0 43 -4 54q-10 25 -61 37v25q70 4 149 31l4 -3q-6 -48 -6 -93v-546q0 -25 11 -33.5t54 -11.5v-29zM277 479h-26q-3 22 -12 104t-13 104v18q16 7 38 7q23 0 40 -5v-19q-2 -13 -7.5 -62.5t-10.5 -89.5t-9 -57z" />
    <glyph glyph-name="Ldot" unicode="&#x13f;" horiz-adv-x="616" 
d="M363 0h-338v30q65 5 84 15.5t19 45.5v463q0 34 -18.5 45.5t-75.5 15.5v30h281v-30q-54 -2 -74 -14t-20 -47v-452q0 -39 13.5 -53t58.5 -14h80q49 0 77 18q51 31 114 151l28 -11q-38 -91 -64 -196q-66 3 -165 3zM419 394q0 21 14.5 39t40.5 18q22 0 37 -17t15 -40
q0 -24 -15 -40t-38 -16q-25 0 -39.5 17t-14.5 39z" />
    <glyph glyph-name="ldot" unicode="&#x140;" horiz-adv-x="286" 
d="M218 395q0 19 13 35.5t37 16.5q22 0 35 -15.5t13 -36.5q0 -23 -13.5 -37.5t-35.5 -14.5q-23 0 -36 16t-13 36zM232 0h-209v30q42 3 52 11.5t10 34.5v493q0 43 -4 54q-10 25 -61 37v25q70 4 149 31l4 -3q-6 -48 -6 -93v-546q0 -25 11 -33.5t54 -11.5v-29z" />
    <glyph glyph-name="Lslash" unicode="&#x141;" horiz-adv-x="616" 
d="M564 204l28 -11q-38 -91 -64 -196q-66 3 -165 3h-338v30q65 5 84 15.5t19 45.5v188l-97 -44v39l97 43v237q0 34 -18.5 45.5t-75.5 15.5v30h281v-30q-54 -2 -74 -14t-20 -47v-195l156 70v-38l-156 -70v-219q0 -39 13.5 -53t58.5 -14h80q49 0 77 18q51 31 114 151z" />
    <glyph glyph-name="lslash" unicode="&#x142;" horiz-adv-x="268" 
d="M257 422l-77 -48v-300q0 -25 11 -33.5t53 -11.5v-29h-209v30q42 3 52 11.5t10 34.5v247l-70 -44v36l70 44v210q0 42 -3 54q-3 8 -19 19.5t-43 17.5v25q71 4 150 31l4 -3q-6 -48 -6 -93v-210l77 48v-36z" />
    <glyph glyph-name="Nacute" unicode="&#x143;" horiz-adv-x="741" 
d="M281 0h-252v30q61 5 80.5 25t19.5 84v399q0 25 -18 43q-17 17 -33.5 23t-58.5 11v30h163l398 -513v367q0 71 -18.5 90t-94.5 26v30h251v-30q-62 -4 -80 -26.5t-18 -88.5v-401q0 -76 3 -102h-65q-25 37 -63 87l-325 433v-378q0 -65 20.5 -84t90.5 -25v-30zM326 693l-16 21
l140 133q11 0 42 -12.5t42 -19.5l-1 -16z" />
    <glyph glyph-name="nacute" unicode="&#x144;" horiz-adv-x="541" 
d="M240 0h-217v30q45 2 57 10t12 35v229q0 44 -3 54q-5 18 -52 34v21q66 12 133 43l7 -4q-3 -45 -3 -64q67 68 144 68q56 0 92 -36q43 -42 43 -124v-221q0 -27 10.5 -34.5t50.5 -10.5v-30h-219v30q4 0 10 1q40 4 50.5 9.5t13.5 26.5q2 22 2 47v187q0 52 -27 79
q-23 23 -70 23q-46 0 -77 -29q-15 -15 -19 -27t-4 -45v-227q0 -27 11.5 -34.5t54.5 -10.5v-30zM251 517l-23 15l102 163q6 2 37.5 -7t46.5 -16l-1 -11z" />
    <glyph glyph-name="uni0145" unicode="&#x145;" horiz-adv-x="741" 
d="M281 0h-252v30q61 5 80.5 25t19.5 84v399q0 25 -18 43q-17 17 -33.5 23t-58.5 11v30h163l398 -513v367q0 71 -18.5 90t-94.5 26v30h251v-30q-62 -4 -80 -26.5t-18 -88.5v-401q0 -76 3 -102h-65q-25 37 -63 87l-325 433v-378q0 -65 20.5 -84t90.5 -25v-30zM322 -261l-8 28
q74 27 74 64q0 15 -10.5 24t-39.5 13q-33 6 -33 36q0 17 14 30.5t38 13.5q33 0 58.5 -23.5t25.5 -66.5q0 -49 -35.5 -79t-83.5 -40z" />
    <glyph glyph-name="uni0146" unicode="&#x146;" horiz-adv-x="541" 
d="M240 0h-217v30q45 2 57 10t12 35v229q0 44 -3 54q-5 18 -52 34v21q66 12 133 43l7 -4q-3 -45 -3 -64q67 68 144 68q56 0 92 -36q43 -42 43 -124v-221q0 -27 10.5 -34.5t50.5 -10.5v-30h-219v30q4 0 10 1q40 4 50.5 9.5t13.5 26.5q2 22 2 47v187q0 52 -27 79
q-23 23 -70 23q-46 0 -77 -29q-15 -15 -19 -27t-4 -45v-227q0 -27 11.5 -34.5t54.5 -10.5v-30zM217 -270l-8 28q74 27 74 64q0 15 -10.5 23.5t-39.5 12.5q-33 7 -33 37q0 17 14 30.5t38 13.5q33 0 58.5 -23.5t25.5 -66.5q0 -49 -36 -79.5t-83 -39.5z" />
    <glyph glyph-name="Ncaron" unicode="&#x147;" horiz-adv-x="741" 
d="M281 0h-252v30q61 5 80.5 25t19.5 84v399q0 25 -18 43q-17 17 -33.5 23t-58.5 11v30h163l398 -513v367q0 71 -18.5 90t-94.5 26v30h251v-30q-62 -4 -80 -26.5t-18 -88.5v-401q0 -76 3 -102h-65q-25 37 -63 87l-325 433v-378q0 -65 20.5 -84t90.5 -25v-30zM206 809l15 25
q22 -8 75 -31t72 -31q14 6 46 19.5t59 24.5t44 18l12 -25q-42 -27 -150 -115h-25q-10 8 -39 31.5t-56 44.5t-53 39z" />
    <glyph glyph-name="ncaron" unicode="&#x148;" horiz-adv-x="541" 
d="M240 0h-217v30q45 2 57 10t12 35v229q0 44 -3 54q-5 18 -52 34v21q66 12 133 43l7 -4q-3 -45 -3 -64q67 68 144 68q56 0 92 -36q43 -42 43 -124v-221q0 -27 10.5 -34.5t50.5 -10.5v-30h-219v30q4 0 10 1q40 4 50.5 9.5t13.5 26.5q2 22 2 47v187q0 52 -27 79
q-23 23 -70 23q-46 0 -77 -29q-15 -15 -19 -27t-4 -45v-227q0 -27 11.5 -34.5t54.5 -10.5v-30zM128 712l24 18l110 -94l106 94l23 -18q-26 -36 -117 -168h-26q-41 65 -120 168z" />
    <glyph glyph-name="napostrophe" unicode="&#x149;" horiz-adv-x="541" 
d="M240 0h-217v30q45 2 57 10t12 35v229q0 44 -3 54q-5 18 -52 34v21q66 12 133 43l7 -4q-3 -45 -3 -64q67 68 144 68q56 0 92 -36q43 -42 43 -124v-221q0 -27 10.5 -34.5t50.5 -10.5v-30h-219v30q4 0 10 1q40 4 50.5 9.5t13.5 26.5q2 22 2 47v187q0 52 -27 79
q-23 23 -70 23q-46 0 -77 -29q-15 -15 -19 -27t-4 -45v-227q0 -27 11.5 -34.5t54.5 -10.5v-30zM62 507l-10 29q67 21 67 55q0 14 -7.5 19.5t-32.5 11.5q-36 9 -36 37q0 20 14 32.5t38 12.5q29 0 52.5 -22.5t23.5 -62.5q0 -49 -34.5 -76.5t-74.5 -35.5z" />
    <glyph glyph-name="Eng" unicode="&#x14a;" horiz-adv-x="741" 
d="M281 0h-252v30q32 2 53 9q26 7 36.5 25t10.5 66v408q0 26 -18 44q-17 18 -34 24.5t-58 12.5v26h163l398 -513v382q0 49 -9.5 66.5t-37.5 25.5q-9 2 -66 9v30h251v-30q-28 0 -51 -7q-29 -10 -38 -27t-9 -66v-475q0 -244 -137 -244q-32 0 -51 15t-19 35q0 25 15.5 43.5
t33.5 18.5q13 0 35 -22q19 -21 37 -21q16 0 26.5 22t10.5 64q0 30 -21 60q-6 8 -51.5 68.5t-140.5 186.5t-188 251v-387q0 -50 11.5 -66.5t43.5 -24.5q10 -3 56 -9v-30z" />
    <glyph glyph-name="eng" unicode="&#x14b;" horiz-adv-x="519" 
d="M238 0h-218v30q36 2 49 5q21 4 21 40v225q0 50 -3 60q-3 14 -55 29v24q69 8 135 43l8 -5q-3 -45 -3 -61q71 66 140 66q56 0 90 -36q44 -44 44 -123v-228q0 -77 -18.5 -138t-48 -96t-60.5 -53t-60 -18q-27 0 -43 10.5t-16 26.5q0 17 13 33.5t27 16.5q15 0 38 -13
q19 -12 35 -12q29 0 39.5 44.5t10.5 172.5v259q0 50 -28 78q-23 22 -68 22q-41 0 -73 -26q-12 -10 -17 -24t-5 -49v-228q0 -20 3 -27.5t14 -10.5q9 -3 49 -7v-30z" />
    <glyph glyph-name="Omacron" unicode="&#x14c;" horiz-adv-x="740" 
d="M373 -16q-123 0 -214 81q-103 97 -103 257q0 89 32.5 159.5t88.5 114.5q84 65 189 65q138 0 228 -90t90 -243q0 -130 -71 -225q-42 -56 -103.5 -87.5t-136.5 -31.5zM385 20q60 0 102 33q90 71 90 261q0 157 -76 248q-54 63 -137 63q-65 0 -106 -33q-95 -70 -95 -247
q0 -149 65 -240q61 -85 157 -85zM236 792h265v-55h-265v55z" />
    <glyph glyph-name="omacron" unicode="&#x14d;" horiz-adv-x="528" 
d="M268 456q98 0 160 -68q59 -66 59 -162q0 -103 -67 -173q-65 -65 -152 -65q-100 0 -161 64q-66 68 -66 171q0 123 98 193q57 40 129 40zM272 22q58 0 84 41q35 51 35 155q0 101 -43 159q-37 47 -90 47q-55 0 -88 -45t-33 -142q0 -110 45 -170q36 -45 90 -45zM138 627h248
v-54h-248v54z" />
    <glyph glyph-name="Obreve" unicode="&#x14e;" horiz-adv-x="740" 
d="M373 -16q-123 0 -214 81q-103 97 -103 257q0 89 32.5 159.5t88.5 114.5q84 65 189 65q138 0 228 -90t90 -243q0 -130 -71 -225q-42 -56 -103.5 -87.5t-136.5 -31.5zM385 20q60 0 102 33q90 71 90 261q0 157 -76 248q-54 63 -137 63q-65 0 -106 -33q-95 -70 -95 -247
q0 -149 65 -240q61 -85 157 -85zM504 847l26 -10q-20 -56 -63 -88t-103 -32q-65 0 -104 34.5t-52 85.5l25 10q12 -18 23.5 -29.5t40.5 -22t70 -10.5q33 0 56.5 4.5t39 15.5t22 18t19.5 24z" />
    <glyph glyph-name="obreve" unicode="&#x14f;" horiz-adv-x="528" 
d="M268 456q98 0 160 -68q59 -66 59 -162q0 -103 -67 -173q-65 -65 -152 -65q-100 0 -161 64q-66 68 -66 171q0 123 98 193q57 40 129 40zM272 22q58 0 84 41q35 51 35 155q0 101 -43 159q-37 47 -90 47q-55 0 -88 -45t-33 -142q0 -110 45 -170q36 -45 90 -45zM381 679
l26 -5q-14 -60 -51 -96.5t-97 -36.5q-62 0 -97.5 36.5t-44.5 96.5l29 5q29 -70 117 -70q84 0 118 70z" />
    <glyph glyph-name="Ohungarumlaut" unicode="&#x150;" horiz-adv-x="740" 
d="M373 -16q-123 0 -214 81q-103 97 -103 257q0 89 32.5 159.5t88.5 114.5q84 65 189 65q138 0 228 -90t90 -243q0 -130 -71 -225q-42 -56 -103.5 -87.5t-136.5 -31.5zM385 20q60 0 102 33q90 71 90 261q0 157 -76 248q-54 63 -137 63q-65 0 -106 -33q-95 -70 -95 -247
q0 -149 65 -240q61 -85 157 -85zM234 722l85 134q10 2 44 -4.5t52 -12.5l1 -12l-158 -121zM416 723l84 133q18 3 98 -17v-12l-159 -121z" />
    <glyph glyph-name="ohungarumlaut" unicode="&#x151;" horiz-adv-x="528" 
d="M268 456q98 0 160 -68q59 -66 59 -162q0 -103 -67 -173q-65 -65 -152 -65q-100 0 -161 64q-66 68 -66 171q0 123 98 193q57 40 129 40zM272 22q58 0 84 41q35 51 35 155q0 101 -43 159q-37 47 -90 47q-55 0 -88 -45t-33 -142q0 -110 45 -170q36 -45 90 -45zM164 528
l-22 14l80 154q7 2 35 -4t40 -13l1 -9zM326 528l-20 14l80 154q5 2 33.5 -4t40.5 -13l1 -9z" />
    <glyph glyph-name="OE" unicode="&#x152;" horiz-adv-x="1007" 
d="M508 82v473q0 20 -5 28.5t-20 15.5q-36 17 -91 17q-103 0 -165.5 -69t-62.5 -217q0 -149 66.5 -224.5t172.5 -75.5q56 0 82 11q23 9 23 41zM782 0h-209q-16 0 -70 -2.5t-101 -2.5q-164 0 -255.5 87.5t-91.5 239.5q0 148 98.5 238t245.5 90q50 0 102 -2.5t73 -2.5h198
q99 0 131 6q4 -75 26 -171l-27 -8q-49 105 -92 129q-16 9 -62 9h-117q-19 0 -24.5 -8t-5.5 -33v-221h102q45 0 60 22t24 85h28q0 -4 -2 -51.5t-2 -72.5q0 -49 4 -129h-29q-14 73 -26 88q-15 21 -57 21h-102v-204q0 -47 15.5 -59.5t69.5 -12.5h71q41 0 57 3t34 14
q49 31 107 143l27 -10q-37 -92 -57 -189q-76 4 -143 4z" />
    <glyph glyph-name="oe" unicode="&#x153;" horiz-adv-x="797" 
d="M270 16q55 0 86.5 48t31.5 149q0 54 -11.5 99t-42 79t-77.5 34q-54 0 -87 -47t-33 -143q0 -36 7 -72.5t22 -70.5t42 -55t62 -21zM747 98l14 -19q-73 -95 -176 -95q-98 0 -153 81q-27 -36 -72 -58.5t-95 -22.5q-100 0 -162 66.5t-62 169.5q0 107 66.5 171.5t156.5 64.5
q61 0 101.5 -22.5t73.5 -65.5q25 38 65 63t87 25q79 0 124 -51.5t45 -114.5q0 -38 -9 -40q-27 -3 -278 -3v-9q0 -108 48 -158q39 -42 92 -42q74 0 134 60zM475 277q119 0 171 3q19 1 24.5 9t5.5 27q0 38 -23.5 74t-72.5 36q-39 0 -68.5 -38t-36.5 -111z" />
    <glyph glyph-name="Racute" unicode="&#x154;" horiz-adv-x="651" 
d="M221 566v-236h51q174 0 174 148q0 136 -147 136q-54 0 -69 -12q-9 -8 -9 -36zM315 0h-281v30q57 5 73 15q21 14 21 46v463q0 20 -5.5 31.5t-20 17.5t-27.5 8t-41 4v30h267q110 0 159 -24q84 -40 84 -136q0 -126 -146 -166q22 -38 83.5 -129.5t92.5 -124.5q31 -32 90 -35
v-30q-23 -1 -99 -1q-31 0 -52 8t-39 33q-62 84 -140 222q-14 24 -24.5 31t-33.5 7h-55v-209q0 -35 23.5 -46.5t70.5 -14.5v-30zM246 696l-16 21l140 133q11 0 42 -12.5t42 -19.5l-1 -16z" />
    <glyph glyph-name="racute" unicode="&#x155;" horiz-adv-x="362" 
d="M264 0h-241v30q48 3 58.5 10t10.5 36v223q0 38 -1.5 49.5t-8.5 17.5q-18 16 -47 27v20q26 4 70 18t65 25l8 -4q-5 -29 -7 -73q77 77 135 77q27 0 42 -13.5t15 -34.5q0 -26 -17.5 -43t-34.5 -17q-14 0 -28 14q-15 16 -28 26q-8 6 -16 6q-10 0 -25 -10t-25 -22
q-15 -21 -15 -56v-230q0 -28 12.5 -34.5t59.5 -10.5q11 0 18 -1v-30zM160 517l-23 15l101 163q6 2 38 -7t47 -16l-1 -11z" />
    <glyph glyph-name="uni0156" unicode="&#x156;" horiz-adv-x="651" 
d="M221 566v-236h51q174 0 174 148q0 136 -147 136q-54 0 -69 -12q-9 -8 -9 -36zM315 0h-281v30q57 5 73 15q21 14 21 46v463q0 20 -5.5 31.5t-20 17.5t-27.5 8t-41 4v30h267q110 0 159 -24q84 -40 84 -136q0 -126 -146 -166q22 -38 83.5 -129.5t92.5 -124.5q31 -32 90 -35
v-30q-23 -1 -99 -1q-31 0 -52 8t-39 33q-62 84 -140 222q-14 24 -24.5 31t-33.5 7h-55v-209q0 -35 23.5 -46.5t70.5 -14.5v-30zM277 -271l-8 28q74 27 74 64q0 15 -10.5 24t-39.5 13q-33 6 -33 36q0 17 14 30.5t38 13.5q33 0 58.5 -23.5t25.5 -66.5q0 -49 -35.5 -79
t-83.5 -40z" />
    <glyph glyph-name="uni0157" unicode="&#x157;" horiz-adv-x="362" 
d="M264 0h-241v30q48 3 58.5 10t10.5 36v223q0 38 -1.5 49.5t-8.5 17.5q-18 16 -47 27v20q26 4 70 18t65 25l8 -4q-5 -29 -7 -73q77 77 135 77q27 0 42 -13.5t15 -34.5q0 -26 -17.5 -43t-34.5 -17q-14 0 -28 14q-15 16 -28 26q-8 6 -16 6q-10 0 -25 -10t-25 -22
q-15 -21 -15 -56v-230q0 -28 12.5 -34.5t59.5 -10.5q11 0 18 -1v-30zM86 -261l-8 28q74 27 74 64q0 15 -10.5 24t-39.5 13q-33 6 -33 36q0 17 14 30.5t38 13.5q33 0 58.5 -23.5t25.5 -66.5q0 -49 -35.5 -79t-83.5 -40z" />
    <glyph glyph-name="Rcaron" unicode="&#x158;" horiz-adv-x="651" 
d="M221 566v-236h51q174 0 174 148q0 136 -147 136q-54 0 -69 -12q-9 -8 -9 -36zM315 0h-281v30q57 5 73 15q21 14 21 46v463q0 20 -5.5 31.5t-20 17.5t-27.5 8t-41 4v30h267q110 0 159 -24q84 -40 84 -136q0 -126 -146 -166q22 -38 83.5 -129.5t92.5 -124.5q31 -32 90 -35
v-30q-23 -1 -99 -1q-31 0 -52 8t-39 33q-62 84 -140 222q-14 24 -24.5 31t-33.5 7h-55v-209q0 -35 23.5 -46.5t70.5 -14.5v-30zM132 815l14 26q23 -9 77 -32.5t71 -30.5q111 49 149 63l11 -25q-51 -33 -149 -115h-26q-114 92 -147 114z" />
    <glyph glyph-name="rcaron" unicode="&#x159;" horiz-adv-x="362" 
d="M264 0h-241v30q48 3 58.5 10t10.5 36v223q0 38 -1.5 49.5t-8.5 17.5q-18 16 -47 27v20q26 4 70 18t65 25l8 -4q-5 -29 -7 -73q77 77 135 77q27 0 42 -13.5t15 -34.5q0 -26 -17.5 -43t-34.5 -17q-14 0 -28 14q-15 16 -28 26q-8 6 -16 6q-10 0 -25 -10t-25 -22
q-15 -21 -15 -56v-230q0 -28 12.5 -34.5t59.5 -10.5q11 0 18 -1v-30zM45 708l24 18l110 -94l106 94l23 -18q-26 -36 -117 -168h-26q-41 65 -120 168z" />
    <glyph glyph-name="Sacute" unicode="&#x15a;" horiz-adv-x="543" 
d="M57 198l30 7q35 -110 100 -158q38 -26 84 -26q58 0 90 33t32 82q0 48 -29 81t-103 65q-103 45 -141.5 91t-38.5 116q0 68 51.5 120t146.5 52q67 0 125 -28q4 2 29 20h21q-2 -53 23 -198l-28 -7q-18 51 -45 93t-53 60q-35 24 -76 24q-53 0 -81.5 -31t-28.5 -77
q0 -51 27 -81.5t106 -63.5q106 -44 145.5 -90t39.5 -117q0 -76 -59 -128t-155 -52q-47 0 -123 20q-21 6 -56 -2q-7 81 -33 195zM230 706l-15 21l140 133q11 0 42.5 -12t40.5 -20v-15z" />
    <glyph glyph-name="sacute" unicode="&#x15b;" horiz-adv-x="367" 
d="M330 312l-30 -7q-19 57 -54 92q-29 27 -68 27q-27 0 -45.5 -18.5t-18.5 -48.5q0 -32 19.5 -52.5t69.5 -43.5q70 -33 98.5 -64t28.5 -79q0 -57 -40.5 -93.5t-105.5 -36.5q-31 0 -89 14q-16 3 -39 -1q-5 53 -27 143l29 9q19 -68 64 -109q30 -25 67 -25q26 0 45.5 15.5
t19.5 52.5q0 30 -20 49.5t-80 50.5q-60 29 -85.5 61.5t-25.5 80.5q0 55 39.5 91t106.5 36q41 0 80 -15q14 3 22 10h16q7 -65 23 -139zM163 518l-23 15l102 163q6 2 37.5 -7t46.5 -16l-1 -11z" />
    <glyph glyph-name="Scircumflex" unicode="&#x15c;" horiz-adv-x="543" 
d="M57 198l30 7q35 -110 100 -158q38 -26 84 -26q58 0 90 33t32 82q0 48 -29 81t-103 65q-103 45 -141.5 91t-38.5 116q0 68 51.5 120t146.5 52q67 0 125 -28q4 2 29 20h21q-2 -53 23 -198l-28 -7q-18 51 -45 93t-53 60q-35 24 -76 24q-53 0 -81.5 -31t-28.5 -77
q0 -51 27 -81.5t106 -63.5q106 -44 145.5 -90t39.5 -117q0 -76 -59 -128t-155 -52q-47 0 -123 20q-21 6 -56 -2q-7 81 -33 195zM440 729l-14 -26q-23 9 -77 32.5t-71 30.5q-112 -49 -148 -63l-12 26q64 41 149 115h26q97 -81 147 -115z" />
    <glyph glyph-name="scircumflex" unicode="&#x15d;" horiz-adv-x="367" 
d="M330 312l-30 -7q-19 57 -54 92q-29 27 -68 27q-27 0 -45.5 -18.5t-18.5 -48.5q0 -32 19.5 -52.5t69.5 -43.5q70 -33 98.5 -64t28.5 -79q0 -57 -40.5 -93.5t-105.5 -36.5q-31 0 -89 14q-16 3 -39 -1q-5 53 -27 143l29 9q19 -68 64 -109q30 -25 67 -25q26 0 45.5 15.5
t19.5 52.5q0 30 -20 49.5t-80 50.5q-60 29 -85.5 61.5t-25.5 80.5q0 55 39.5 91t106.5 36q41 0 80 -15q14 3 22 10h16q7 -65 23 -139zM321 545l-24 -19l-110 95l-106 -95l-23 19q73 102 117 168h26q41 -65 120 -168z" />
    <glyph glyph-name="uni015E" unicode="&#x15e;" horiz-adv-x="543" 
d="M477 455l-28 -7q-18 51 -45 93t-53 60q-35 24 -76 24q-53 0 -81.5 -31t-28.5 -77q0 -51 27 -81.5t106 -63.5q106 -44 145.5 -90t39.5 -117q0 -69 -49.5 -119t-132.5 -59l-28 -34q86 -23 86 -92q0 -34 -26.5 -61.5t-68.5 -27.5q-33 0 -56 12.5t-23 31.5q0 10 10.5 20.5
t25.5 10.5q9 0 28 -31q12 -17 28 -17q14 0 23 11t9 26q0 60 -109 64l-1 16l64 69q-49 1 -117 20q-21 6 -56 -2q-7 81 -33 195l30 7q35 -110 100 -158q38 -26 84 -26q58 0 90 33t32 82q0 48 -29 81t-103 65q-103 45 -141.5 91t-38.5 116q0 68 51.5 120t146.5 52q67 0 125 -28
q4 2 29 20h21q-2 -53 23 -198z" />
    <glyph glyph-name="uni015F" unicode="&#x15f;" horiz-adv-x="367" 
d="M330 312l-30 -7q-19 57 -54 92q-29 27 -68 27q-27 0 -45.5 -18.5t-18.5 -48.5q0 -32 19.5 -52.5t69.5 -43.5q70 -33 98.5 -64t28.5 -79q0 -51 -33.5 -86.5t-88.5 -42.5l-29 -33q91 -27 91 -96q0 -33 -29.5 -60.5t-71.5 -27.5q-32 0 -55.5 13t-23.5 31q0 11 10.5 21
t25.5 11q9 0 29 -32q12 -17 29 -17q13 0 22 11t9 26q0 59 -107 64v16l66 72q-25 2 -79 14q-16 3 -39 -1q-5 53 -27 143l29 9q19 -68 64 -109q30 -25 67 -25q26 0 45.5 15.5t19.5 52.5q0 30 -20 49.5t-80 50.5q-60 29 -85.5 61.5t-25.5 80.5q0 55 39.5 91t106.5 36
q41 0 80 -15q14 3 22 10h16q7 -65 23 -139z" />
    <glyph glyph-name="Scaron" unicode="&#x160;" horiz-adv-x="543" 
d="M57 198l30 7q35 -110 100 -158q38 -26 84 -26q58 0 90 33t32 82q0 48 -29 81t-103 65q-103 45 -141.5 91t-38.5 116q0 68 51.5 120t146.5 52q67 0 125 -28q4 2 29 20h21q-2 -53 23 -198l-28 -7q-18 51 -45 93t-53 60q-35 24 -76 24q-53 0 -81.5 -31t-28.5 -77
q0 -51 27 -81.5t106 -63.5q106 -44 145.5 -90t39.5 -117q0 -76 -59 -128t-155 -52q-47 0 -123 20q-21 6 -56 -2q-7 81 -33 195zM117 831l15 26q19 -8 72 -31t75 -32q65 29 149 63l12 -26q-57 -36 -150 -115h-25q-112 91 -148 115z" />
    <glyph glyph-name="scaron" unicode="&#x161;" horiz-adv-x="367" 
d="M330 312l-30 -7q-19 57 -54 92q-29 27 -68 27q-27 0 -45.5 -18.5t-18.5 -48.5q0 -32 19.5 -52.5t69.5 -43.5q70 -33 98.5 -64t28.5 -79q0 -57 -40.5 -93.5t-105.5 -36.5q-31 0 -89 14q-16 3 -39 -1q-5 53 -27 143l29 9q19 -68 64 -109q30 -25 67 -25q26 0 45.5 15.5
t19.5 52.5q0 30 -20 49.5t-80 50.5q-60 29 -85.5 61.5t-25.5 80.5q0 55 39.5 91t106.5 36q41 0 80 -15q14 3 22 10h16q7 -65 23 -139zM55 693l25 18l109 -94l106 94l23 -18q-54 -76 -116 -168h-27q-33 53 -120 168z" />
    <glyph glyph-name="uni0162" unicode="&#x162;" horiz-adv-x="681" 
d="M176 645h330q66 0 116 10q1 -60 24 -181l-27 -7q-40 95 -83 128q-20 15 -52 15h-97v-519q0 -36 19 -45.5t85 -15.5v-30h-125l-38 -47q86 -23 86 -92q0 -34 -26.5 -61.5t-69.5 -27.5q-32 0 -55 12.5t-23 31.5q0 10 10.5 20.5t24.5 10.5q1 0 2.5 -0.5l3 -1t2.5 -1.5t2.5 -2
t3 -3t2.5 -3t2.5 -4t3 -5t3.5 -5l4 -6q12 -17 28 -17q13 0 22.5 11t9.5 26q0 60 -109 64l-1 16l76 84h-140v30q64 4 84 14t20 47v519h-96q-32 0 -53 -15q-43 -33 -82 -128l-27 7q23 121 24 181q50 -10 116 -10z" />
    <glyph glyph-name="uni0163" unicode="&#x163;" horiz-adv-x="323" 
d="M165 395v-284q0 -33 17 -51t45 -18q41 0 74 25v-28q-35 -39 -88 -47l-30 -36q91 -27 91 -96q0 -33 -29.5 -60.5t-71.5 -27.5q-32 0 -55.5 13t-23.5 31q0 11 10.5 21t25.5 11q1 0 2.5 -0.5t2.5 -1t2.5 -1.5t2.5 -2t2.5 -3t2.5 -3.5l3 -4.5t3.5 -4.5t3.5 -5.5t4 -6
q12 -17 29 -17q13 0 22 11t9 26q0 59 -107 64v16l68 75q-40 3 -68.5 30t-28.5 87v287h-58v22q59 32 127 120h26q-8 -46 -10 -93h134q2 -8 0 -24.5t-6 -24.5h-131z" />
    <glyph glyph-name="Tcaron" unicode="&#x164;" horiz-adv-x="681" 
d="M491 0h-301v30q64 4 84 14t20 47v519h-96q-32 0 -53 -15q-43 -33 -82 -128l-27 7q23 121 24 181q50 -10 116 -10h330q66 0 116 10q1 -60 24 -181l-27 -7q-40 95 -83 128q-20 15 -52 15h-97v-519q0 -36 19 -45.5t85 -15.5v-30zM177 811l15 26q19 -8 72 -31t75 -32
q65 29 149 63l12 -26q-57 -36 -150 -115h-25q-112 91 -148 115z" />
    <glyph glyph-name="tcaron" unicode="&#x165;" horiz-adv-x="323" 
d="M301 67v-28q-45 -49 -108 -49q-44 0 -77 26.5t-33 91.5v287h-58v22q59 32 127 120h26q-8 -46 -10 -93h134q2 -8 0 -24.5t-6 -24.5h-131v-284q0 -33 17 -51t45 -18q41 0 74 25zM285 517h-27q-1 10 -11 96.5t-14 111.5v18q18 7 38 7q24 0 41 -5v-19q-2 -14 -7.5 -62.5
t-11 -89t-8.5 -57.5z" />
    <glyph glyph-name="Tbar" unicode="&#x166;" horiz-adv-x="681" 
d="M176 645h330q66 0 116 10q1 -60 24 -181l-27 -7q-40 95 -83 128q-20 15 -52 15h-97v-265h118v-34h-118v-220q0 -36 19 -45.5t85 -15.5v-30h-301v30q64 4 84 14t20 47v220h-109v34h109v265h-96q-32 0 -53 -15q-43 -33 -82 -128l-27 7q23 121 24 181q50 -10 116 -10z" />
    <glyph glyph-name="tbar" unicode="&#x167;" horiz-adv-x="323" 
d="M165 228v-117q0 -33 17 -51t45 -18q41 0 74 25v-28q-45 -49 -108 -49q-44 0 -77 26.5t-33 91.5v120h-55v34h55v133h-58v22q59 32 127 120h26q-8 -46 -10 -93h134q2 -8 0 -24.5t-6 -24.5h-131v-133h86v-34h-86z" />
    <glyph glyph-name="Utilde" unicode="&#x168;" horiz-adv-x="724" 
d="M24 615v30h281v-30q-55 -2 -74.5 -14t-19.5 -47v-337q0 -57 13 -87q19 -44 62 -69.5t105 -25.5q75 0 114.5 30t55.5 91q7 26 7 79v274q0 66 -17.5 82.5t-87.5 23.5v30h246v-30q-63 -6 -79 -25.5t-16 -80.5v-259q0 -60 -11 -100q-41 -166 -237 -166q-104 0 -162.5 44.5
t-76.5 111.5q-9 33 -9 96v318q0 34 -19 45.5t-75 15.5zM523 823l26 -7q-6 -36 -32 -69t-71 -33q-27 0 -83 24q-43 18 -64 18q-22 0 -34.5 -10t-24.5 -36l-26 9q22 98 106 98q28 0 79 -21q46 -19 63 -19q22 0 36 9t25 37z" />
    <glyph glyph-name="utilde" unicode="&#x169;" horiz-adv-x="529" 
d="M506 37v-28q-122 -15 -141 -21l-5 5q-1 14 -1 54q-74 -59 -146 -59q-52 0 -90.5 37t-38.5 103v248q0 27 -60 39v29q109 0 148 9q-5 -75 -5 -115v-216q0 -33 27 -57t67 -24q46 0 73 19q25 19 25 63v251q0 9 -3 14.5t-21 13.5t-53 13l5 29q119 0 159 6q-5 -30 -5 -158v-221
q0 -21 14 -26q15 -6 51 -8zM394 661l25 -8q-6 -37 -29.5 -69t-66.5 -32q-32 0 -80 24q-43 18 -62 18q-21 0 -32.5 -10.5t-22.5 -35.5l-25 9q6 43 30.5 70.5t64.5 27.5q30 0 80 -22q43 -19 62 -19t32 9t24 38z" />
    <glyph glyph-name="Umacron" unicode="&#x16a;" horiz-adv-x="724" 
d="M24 615v30h281v-30q-55 -2 -74.5 -14t-19.5 -47v-337q0 -57 13 -87q19 -44 62 -69.5t105 -25.5q75 0 114.5 30t55.5 91q7 26 7 79v274q0 66 -17.5 82.5t-87.5 23.5v30h246v-30q-63 -6 -79 -25.5t-16 -80.5v-259q0 -60 -11 -100q-41 -166 -237 -166q-104 0 -162.5 44.5
t-76.5 111.5q-9 33 -9 96v318q0 34 -19 45.5t-75 15.5zM251 782h265v-54h-265v54z" />
    <glyph glyph-name="umacron" unicode="&#x16b;" horiz-adv-x="529" 
d="M506 37v-28q-122 -15 -141 -21l-5 5q-1 14 -1 54q-74 -59 -146 -59q-52 0 -90.5 37t-38.5 103v248q0 27 -60 39v29q109 0 148 9q-5 -75 -5 -115v-216q0 -33 27 -57t67 -24q46 0 73 19q25 19 25 63v251q0 9 -3 14.5t-21 13.5t-53 13l5 29q119 0 159 6q-5 -30 -5 -158v-221
q0 -21 14 -26q15 -6 51 -8zM126 627h248v-54h-248v54z" />
    <glyph glyph-name="Ubreve" unicode="&#x16c;" horiz-adv-x="724" 
d="M24 615v30h281v-30q-55 -2 -74.5 -14t-19.5 -47v-337q0 -57 13 -87q19 -44 62 -69.5t105 -25.5q75 0 114.5 30t55.5 91q7 26 7 79v274q0 66 -17.5 82.5t-87.5 23.5v30h246v-30q-63 -6 -79 -25.5t-16 -80.5v-259q0 -60 -11 -100q-41 -166 -237 -166q-104 0 -162.5 44.5
t-76.5 111.5q-9 33 -9 96v318q0 34 -19 45.5t-75 15.5zM517 827l26 -9q-20 -57 -62.5 -89t-102.5 -32q-65 0 -105 34.5t-52 86.5l26 9q11 -18 23 -29t41 -21.5t69 -10.5q44 0 72.5 10t39 20t25.5 31z" />
    <glyph glyph-name="ubreve" unicode="&#x16d;" horiz-adv-x="529" 
d="M506 37v-28q-122 -15 -141 -21l-5 5q-1 14 -1 54q-74 -59 -146 -59q-52 0 -90.5 37t-38.5 103v248q0 27 -60 39v29q109 0 148 9q-5 -75 -5 -115v-216q0 -33 27 -57t67 -24q46 0 73 19q25 19 25 63v251q0 9 -3 14.5t-21 13.5t-53 13l5 29q119 0 159 6q-5 -30 -5 -158v-221
q0 -21 14 -26q15 -6 51 -8zM373 679l26 -5q-14 -60 -51 -96.5t-97 -36.5q-62 0 -97.5 36.5t-44.5 96.5l29 5q29 -70 117 -70q84 0 118 70z" />
    <glyph glyph-name="Uring" unicode="&#x16e;" horiz-adv-x="724" 
d="M24 615v30h281v-30q-55 -2 -74.5 -14t-19.5 -47v-337q0 -57 13 -87q19 -44 62 -69.5t105 -25.5q75 0 114.5 30t55.5 91q7 26 7 79v274q0 66 -17.5 82.5t-87.5 23.5v30h246v-30q-63 -6 -79 -25.5t-16 -80.5v-259q0 -60 -11 -100q-41 -166 -237 -166q-104 0 -162.5 44.5
t-76.5 111.5q-9 33 -9 96v318q0 34 -19 45.5t-75 15.5zM374 857q41 0 65 -23.5t24 -59.5q0 -35 -24 -58.5t-65 -23.5t-64.5 23t-23.5 59q0 35 23.5 59t64.5 24zM373 825q-21 0 -36 -14.5t-15 -36.5q0 -25 15 -37.5t37 -12.5q52 0 52 53q0 20 -15.5 34t-37.5 14z" />
    <glyph glyph-name="uring" unicode="&#x16f;" horiz-adv-x="529" 
d="M506 37v-28q-122 -15 -141 -21l-5 5q-1 14 -1 54q-74 -59 -146 -59q-52 0 -90.5 37t-38.5 103v248q0 27 -60 39v29q109 0 148 9q-5 -75 -5 -115v-216q0 -33 27 -57t67 -24q46 0 73 19q25 19 25 63v251q0 9 -3 14.5t-21 13.5t-53 13l5 29q119 0 159 6q-5 -30 -5 -158v-221
q0 -21 14 -26q15 -6 51 -8zM250 687q38 0 61 -25.5t23 -60.5t-23 -59.5t-61 -24.5q-39 0 -62 24.5t-23 59.5q0 36 23 61t62 25zM249 656q-20 0 -33.5 -16t-13.5 -39q0 -25 14 -39.5t34 -14.5q21 0 34 14.5t13 41.5q0 22 -14 37.5t-34 15.5z" />
    <glyph glyph-name="Uhungarumlaut" unicode="&#x170;" horiz-adv-x="724" 
d="M24 615v30h281v-30q-55 -2 -74.5 -14t-19.5 -47v-337q0 -57 13 -87q19 -44 62 -69.5t105 -25.5q75 0 114.5 30t55.5 91q7 26 7 79v274q0 66 -17.5 82.5t-87.5 23.5v30h246v-30q-63 -6 -79 -25.5t-16 -80.5v-259q0 -60 -11 -100q-41 -166 -237 -166q-104 0 -162.5 44.5
t-76.5 111.5q-9 33 -9 96v318q0 34 -19 45.5t-75 15.5zM240 718l85 134q10 2 45 -5t51 -13l1 -11l-158 -122zM422 719l84 133q24 4 98 -18v-11l-159 -122z" />
    <glyph glyph-name="uhungarumlaut" unicode="&#x171;" horiz-adv-x="529" 
d="M506 37v-28q-122 -15 -141 -21l-5 5q-1 14 -1 54q-74 -59 -146 -59q-52 0 -90.5 37t-38.5 103v248q0 27 -60 39v29q109 0 148 9q-5 -75 -5 -115v-216q0 -33 27 -57t67 -24q46 0 73 19q25 19 25 63v251q0 9 -3 14.5t-21 13.5t-53 13l5 29q119 0 159 6q-5 -30 -5 -158v-221
q0 -21 14 -26q15 -6 51 -8zM157 528l-21 14l80 154q6 2 34.5 -4t39.5 -13l1 -9zM319 528l-20 14l80 154q6 2 34 -4t41 -13l1 -9z" />
    <glyph glyph-name="Uogonek" unicode="&#x172;" horiz-adv-x="724" 
d="M463 645h246v-30q-63 -6 -79 -25.5t-16 -80.5v-259q0 -60 -11 -100q-25 -104 -117 -144q-77 -66 -77 -127q0 -25 14 -38.5t36 -13.5q32 0 61 20l8 -18q-41 -64 -108 -64q-40 0 -63.5 23.5t-23.5 57.5q0 69 112 147q-35 -9 -79 -9q-104 0 -162.5 44.5t-76.5 111.5
q-9 33 -9 96v318q0 34 -19 45.5t-75 15.5v30h281v-30q-55 -2 -74.5 -14t-19.5 -47v-337q0 -57 13 -87q19 -44 62 -69.5t105 -25.5q75 0 114.5 30t55.5 91q7 26 7 79v274q0 66 -17.5 82.5t-87.5 23.5v30z" />
    <glyph glyph-name="uogonek" unicode="&#x173;" horiz-adv-x="529" 
d="M501 -157l8 -22q-41 -59 -107 -59q-40 0 -65 23t-25 58q0 73 120 157q-53 -7 -67 -12l-5 5q-1 14 -1 54q-74 -59 -146 -59q-52 0 -90.5 37t-38.5 103v248q0 27 -60 39v29q109 0 148 9q-5 -75 -5 -115v-216q0 -33 27 -57t67 -24q46 0 73 19q25 19 25 63v251q0 9 -3 14.5
t-21 13.5t-53 13l5 29q119 0 159 6q-5 -30 -5 -158v-221q0 -21 14 -26q15 -6 51 -8v-28q-4 0 -15.5 -1.5t-17.5 -2.5q-84 -80 -84 -135q0 -50 48 -50q28 0 64 23z" />
    <glyph glyph-name="Wcircumflex" unicode="&#x174;" horiz-adv-x="960" 
d="M-2 615v30h273v-30q-9 -1 -28.5 -3.5t-31.5 -4.5q-33 -7 -24 -45q36 -144 121 -427q13 34 72.5 182.5t79.5 200.5q3 8 0 22q-12 48 -27 58.5t-72 16.5v30h264v-30q-40 -5 -59 -9q-30 -6 -18 -46q14 -44 66.5 -199.5t73.5 -221.5q75 201 131 378q14 49 14 61
q-1 17 -23.5 24t-77.5 13v30h248v-30q-52 -7 -72.5 -21.5t-36.5 -57.5q-121 -327 -195 -549h-36q-32 114 -159 486q-30 -77 -102.5 -259t-89.5 -227h-35q-42 171 -161 563q-12 37 -29 49t-66 16zM653 724l-15 -26q-23 9 -77 32.5t-71 30.5q-93 -42 -148 -63l-12 26
q64 41 149 115h26q96 -80 148 -115z" />
    <glyph glyph-name="wcircumflex" unicode="&#x175;" horiz-adv-x="725" 
d="M-1 414v30h216v-30q-44 -5 -55 -10.5t-6 -25.5q7 -29 21.5 -72.5t39.5 -115t29 -81.5q98 226 103 239q3 5 1 12q-8 26 -15 35.5t-20 12.5q-14 4 -40 6v30h207v-30q-60 -5 -60 -20q0 -5 9 -34q16 -45 52.5 -147t37.5 -105q67 171 97 263q9 29 -13 34q-24 6 -65 9v30h194
v-30q-26 -4 -34.5 -6t-19.5 -11.5t-20 -29.5q-22 -50 -75.5 -183t-74.5 -193h-30q-39 113 -113 315q-110 -248 -136 -314h-30q-50 168 -130 379q-10 26 -21 32t-49 11zM508 538l-24 -19l-110 95l-106 -95l-23 19q73 102 117 168h26q41 -65 120 -168z" />
    <glyph glyph-name="Ycircumflex" unicode="&#x176;" horiz-adv-x="609" 
d="M447 0h-281v30q62 4 78.5 15.5t16.5 45.5v146q0 22 -9 40q-28 61 -156 282q-19 32 -37 41t-61 15v30h259v-29q-41 -5 -54 -8q-24 -6 -13 -27q7 -14 147 -272q73 130 132 253q20 37 -14 44q-27 6 -66 9v30h229v-30q-50 -4 -71 -18t-43 -55q-107 -192 -143 -264
q-7 -14 -7 -41v-146q0 -37 17.5 -47t75.5 -14v-30zM479 729l-14 -26q-24 10 -78.5 33.5t-69.5 29.5q-111 -49 -149 -63l-11 26q64 41 149 115h25q112 -91 148 -115z" />
    <glyph glyph-name="ycircumflex" unicode="&#x177;" horiz-adv-x="476" 
d="M-7 414v30h218v-30q-35 -3 -45 -5q-23 -5 -14 -29q78 -207 112 -280q48 130 94 267q12 34 -14 40q-17 4 -55 7v30h180v-30q-22 -4 -31 -7t-19 -13t-18 -29q-36 -87 -122 -323q-12 -33 -30.5 -86.5t-21.5 -60.5q-28 -77 -55 -109t-65 -32q-22 0 -39.5 15.5t-17.5 36.5
q0 26 16.5 44.5t33.5 18.5q9 0 34 -20q13 -11 22 -11q11 0 25 31q15 35 41 121q-5 18 -69.5 177.5t-86.5 206.5q-8 17 -20 25.5t-19.5 9.5t-33.5 5zM374 538l-24 -19l-110 95l-106 -95l-23 19q73 102 117 168h26q41 -65 120 -168z" />
    <glyph glyph-name="Ydieresis" unicode="&#x178;" horiz-adv-x="609" 
d="M447 0h-281v30q62 4 78.5 15.5t16.5 45.5v146q0 22 -9 40q-28 61 -156 282q-19 32 -37 41t-61 15v30h259v-29q-41 -5 -54 -8q-24 -6 -13 -27q7 -14 147 -272q73 130 132 253q20 37 -14 44q-27 6 -66 9v30h229v-30q-50 -4 -71 -18t-43 -55q-107 -192 -143 -264
q-7 -14 -7 -41v-146q0 -37 17.5 -47t75.5 -14v-30zM219 817q21 0 34 -15t13 -36q0 -24 -14.5 -36.5t-34.5 -12.5q-17 0 -32 13t-15 35q0 21 13.5 36.5t35.5 15.5zM423 816q23 0 36 -15t13 -35t-14 -34.5t-36 -14.5q-19 0 -33 14t-14 34q0 24 14 37.5t34 13.5z" />
    <glyph glyph-name="Zacute" unicode="&#x179;" horiz-adv-x="630" 
d="M387 0h-347v22q44 52 213.5 300.5t190.5 287.5h-221q-43 0 -64 -15q-40 -25 -96 -140l-29 10q35 114 45 190q54 -10 129 -10h251q59 0 103 2v-21q-18 -27 -399 -591h213q53 0 84 19q52 33 114 141l28 -12q-42 -94 -65 -189q-75 6 -150 6zM267 701l-16 21l140 133
q11 0 42 -12.5t42 -19.5l-1 -16z" />
    <glyph glyph-name="zacute" unicode="&#x17a;" horiz-adv-x="434" 
d="M401 151l24 -12q-33 -65 -59 -142q-36 3 -103 3h-214v19q25 38 113.5 188.5t117.5 202.5h-104q-25 0 -40.5 -8.5t-33.5 -29.5q-25 -30 -50 -77l-25 10q36 102 42 151q54 -12 87 -12h226v-17q-30 -47 -114.5 -194.5t-112.5 -199.5h113q37 0 69 34q31 31 64 84zM201 517
l-23 15l102 163q6 2 37.5 -7t46.5 -16l-1 -11z" />
    <glyph glyph-name="Zdotaccent" unicode="&#x17b;" horiz-adv-x="630" 
d="M387 0h-347v22q44 52 213.5 300.5t190.5 287.5h-221q-43 0 -64 -15q-40 -25 -96 -140l-29 10q35 114 45 190q54 -10 129 -10h251q59 0 103 2v-21q-18 -27 -399 -591h213q53 0 84 19q52 33 114 141l28 -12q-42 -94 -65 -189q-75 6 -150 6zM258 760q0 21 14 38.5t39 17.5
q22 0 36 -17t14 -39q0 -24 -14 -39t-37 -15q-24 0 -38 16.5t-14 37.5z" />
    <glyph glyph-name="zdotaccent" unicode="&#x17c;" horiz-adv-x="434" 
d="M401 151l24 -12q-33 -65 -59 -142q-36 3 -103 3h-214v19q25 38 113.5 188.5t117.5 202.5h-104q-25 0 -40.5 -8.5t-33.5 -29.5q-25 -30 -50 -77l-25 10q36 102 42 151q54 -12 87 -12h226v-17q-30 -47 -114.5 -194.5t-112.5 -199.5h113q37 0 69 34q31 31 64 84zM171 605
q0 21 14.5 39.5t40.5 18.5q22 0 37 -17.5t15 -40.5q0 -24 -15 -40t-38 -16q-25 0 -39.5 17t-14.5 39z" />
    <glyph glyph-name="Zcaron" unicode="&#x17d;" horiz-adv-x="630" 
d="M387 0h-347v22q44 52 213.5 300.5t190.5 287.5h-221q-43 0 -64 -15q-40 -25 -96 -140l-29 10q35 114 45 190q54 -10 129 -10h251q59 0 103 2v-21q-18 -27 -399 -591h213q53 0 84 19q52 33 114 141l28 -12q-42 -94 -65 -189q-75 6 -150 6zM145 816l15 26q23 -9 76 -32.5
t71 -30.5q105 46 149 63l12 -25q-53 -33 -150 -116h-25q-96 80 -148 115z" />
    <glyph glyph-name="zcaron" unicode="&#x17e;" horiz-adv-x="434" 
d="M401 151l24 -12q-33 -65 -59 -142q-36 3 -103 3h-214v19q25 38 113.5 188.5t117.5 202.5h-104q-25 0 -40.5 -8.5t-33.5 -29.5q-25 -30 -50 -77l-25 10q36 102 42 151q54 -12 87 -12h226v-17q-30 -47 -114.5 -194.5t-112.5 -199.5h113q37 0 69 34q31 31 64 84zM85 693
l25 18l109 -94l106 94l23 -18q-54 -76 -116 -168h-27q-33 53 -120 168z" />
    <glyph glyph-name="longs" unicode="&#x17f;" horiz-adv-x="263" 
d="M248 0h-225v30q22 1 43 5q26 4 26 34v326h-62v25q41 12 62 30q6 153 100 226q51 39 108 39q30 0 54 -11.5t24 -34.5q0 -21 -16 -35.5t-35 -14.5q-17 0 -36 18l-28 24q-9 6 -23 6q-24 0 -45 -33t-21 -100v-462q0 -18 4.5 -25t17.5 -10q12 -3 52 -7v-30z" />
    <glyph glyph-name="uni018F" unicode="&#x18f;" horiz-adv-x="670" 
d="M56 306h456q0 3 0.5 13.5t0.5 14.5q0 123 -54.5 200.5t-160.5 77.5q-119 0 -212 -91l-18 25q101 115 254 115q73 0 130.5 -27.5t92 -73.5t52 -103.5t17.5 -121.5q0 -94 -31.5 -172t-99.5 -128.5t-162 -50.5q-69 0 -122.5 25.5t-83.5 67.5t-45 90t-15 99q0 29 1 40z
M510 270h-352q-1 -9 -1 -28q0 -97 41.5 -159t128.5 -62q79 0 125 65t58 184z" />
    <glyph glyph-name="florin" unicode="&#x192;" horiz-adv-x="482" 
d="M86 379v36h92q72 269 226 269q38 0 56 -13t18 -31t-15 -34t-34 -16q-11 0 -18.5 5.5t-20.5 23.5q-16 24 -32 24q-29 0 -50.5 -49.5t-48.5 -178.5h101v-36h-109q-9 -37 -30.5 -139t-36.5 -157q-27 -104 -86.5 -170.5t-132.5 -66.5q-29 0 -47 13t-18 33q0 18 16 35t32 17
q7 0 14 -5t11.5 -9.5t18.5 -19.5q12 -14 27 -14q9 0 15.5 3.5t16 15t20 40t21.5 72.5q15 62 41 185t37 167h-84z" />
    <glyph glyph-name="uni019F" unicode="&#x19f;" horiz-adv-x="740" 
d="M161 354h419q-10 129 -68.5 200t-148.5 71q-88 0 -142.5 -66t-59.5 -205zM581 318h-420q2 -133 64.5 -215t158.5 -82q90 0 143 72t54 225zM371 -16q-125 0 -209 78q-106 98 -106 260q0 158 94 248.5t221 90.5q131 0 222 -89t91 -247q0 -150 -89.5 -245.5t-223.5 -95.5z
" />
    <glyph glyph-name="Ohorn" unicode="&#x1a0;" horiz-adv-x="740" 
d="M373 -16q-123 0 -214 81q-103 97 -103 257q0 89 32.5 159.5t88.5 114.5q84 65 189 65q106 0 187 -56q42 16 42 37q0 13 -22 40q-15 18 -15 26q0 17 25.5 37t46.5 20q14 0 24.5 -15.5t10.5 -44.5q0 -39 -24.5 -71.5t-61.5 -49.5q105 -92 105 -256q0 -130 -71 -225
q-42 -56 -103.5 -87.5t-136.5 -31.5zM385 20q60 0 102 33q90 71 90 261q0 157 -76 248q-54 63 -137 63q-65 0 -106 -33q-95 -70 -95 -247q0 -149 65 -240q61 -85 157 -85z" />
    <glyph glyph-name="ohorn" unicode="&#x1a1;" horiz-adv-x="528" 
d="M268 456q75 0 132 -43q36 14 36 34q0 12 -20 37q-13 16 -13 23q0 15 24 34t42 19q13 0 22 -14t9 -42q0 -36 -22 -65t-57 -44l7 -7q59 -66 59 -162q0 -103 -67 -173q-65 -65 -152 -65q-100 0 -161 64q-66 68 -66 171q0 123 98 193q57 40 129 40zM272 22q58 0 84 41
q35 51 35 155q0 101 -43 159q-37 47 -90 47q-55 0 -88 -45t-33 -142q0 -110 45 -170q36 -45 90 -45z" />
    <glyph glyph-name="Uhorn" unicode="&#x1af;" horiz-adv-x="724" 
d="M24 645h281v-30q-25 -1 -52 -6q-42 -8 -42 -55v-337q0 -57 13 -87q19 -44 62 -69.5t105 -25.5q75 0 114.5 30t55.5 91q7 26 7 79v275q0 53 -11.5 72.5t-42.5 25.5q-30 5 -51 7v30h178q31 0 31 17q0 5 -3 11t-5.5 9.5t-10 12.5t-10.5 12q-11 15 -11 23q0 16 26 35.5
t45 19.5q14 0 23.5 -14.5t9.5 -42.5q0 -86 -95 -125q-27 -12 -27 -60v-293q0 -60 -11 -100q-41 -166 -237 -166q-104 0 -162.5 44.5t-76.5 111.5q-9 33 -9 96v318q0 47 -41 54q-29 6 -53 7v30z" />
    <glyph glyph-name="uhorn" unicode="&#x1b0;" horiz-adv-x="529" 
d="M506 37v-28q-122 -15 -141 -21l-5 5q-1 14 -1 54q-74 -59 -146 -59q-52 0 -90.5 37t-38.5 103v248q0 27 -60 39v29q109 0 148 9q-5 -75 -5 -115v-216q0 -33 27 -57t67 -24q46 0 73 19q25 19 25 63v251q0 9 -3 14.5t-21 13.5t-53 13l5 29q113 0 148 4q15 12 15 22
q0 12 -20 37q-13 16 -13 23q0 16 23.5 34.5t41.5 18.5q13 0 22.5 -14.5t9.5 -41.5q0 -33 -19.5 -61.5t-51.5 -44.5q-2 -26 -2 -129v-221q0 -21 14 -26q15 -6 51 -8z" />
    <glyph glyph-name="uni01C4" unicode="&#x1c4;" horiz-adv-x="1352" 
d="M221 553v-419q0 -66 9 -73q29 -28 103 -28q100 0 161 78q68 82 68 217q0 162 -97 237q-61 48 -152 48q-71 0 -84 -14q-8 -8 -8 -46zM34 0v30q58 3 76 15t18 46v463q0 33 -19 45.5t-75 15.5v30h283q126 0 202 -40q73 -38 110.5 -108.5t37.5 -158.5q0 -143 -93 -236
q-45 -47 -113.5 -74.5t-146.5 -27.5h-280zM1109 0h-346v22q43 52 212 300t192 288h-222q-41 0 -64 -15q-40 -25 -96 -140l-29 10q34 104 45 190q54 -10 129 -10h251q59 0 103 2v-21q-39 -58 -187.5 -278t-210.5 -313h213q52 0 83 19q52 33 114 141l28 -12q-37 -82 -65 -189
q-72 6 -150 6zM868 816l14 26q23 -9 77 -32.5t71 -30.5q111 49 149 63l11 -25q-60 -38 -149 -116h-26q-100 84 -147 115z" />
    <glyph glyph-name="uni01C5" unicode="&#x1c5;" horiz-adv-x="1156" 
d="M221 553v-419q0 -66 9 -73q29 -28 103 -28q100 0 161 78q68 82 68 217q0 162 -97 237q-61 48 -152 48q-71 0 -84 -14q-8 -8 -8 -46zM34 0v30q58 3 76 15t18 46v463q0 33 -19 45.5t-75 15.5v30h283q126 0 202 -40q73 -38 110.5 -108.5t37.5 -158.5q0 -143 -93 -236
q-45 -47 -113.5 -74.5t-146.5 -27.5h-280zM1124 151l23 -12q-24 -48 -59 -142q-36 3 -103 3h-214v19q41 60 232 391h-105q-25 0 -40.5 -8.5t-33.5 -29.5q-23 -27 -49 -77l-26 10q36 102 42 151q54 -12 87 -12h227v-17q-30 -46 -112.5 -191t-114.5 -203h112q36 0 70 34
q34 35 64 84zM807 693l25 18l109 -94l106 94l23 -18q-54 -76 -116 -168h-27q-33 53 -120 168z" />
    <glyph glyph-name="uni01C6" unicode="&#x1c6;" horiz-adv-x="970" 
d="M368 116v195q0 39 -4.5 53.5t-18.5 28.5q-30 30 -81 30q-50 0 -80 -30q-47 -47 -47 -161q0 -106 45 -158q36 -42 91 -42q41 0 67 17q28 19 28 67zM515 35v-29q-103 -10 -137 -19l-5 3q-5 20 -5 44q-72 -46 -140 -46q-77 0 -128 59q-59 64 -59 165q0 127 100 199
q65 45 146 45q39 0 81 -10q0 171 -3 179q-8 21 -74 35v27q100 4 159 27l5 -2q-5 -55 -5 -84v-528q0 -43 9 -49q18 -14 56 -16zM937 151l23 -12q-28 -57 -59 -142q-33 3 -102 3h-215v19q41 60 232 391h-105q-24 0 -39.5 -8.5t-33.5 -29.5q-25 -30 -50 -77l-25 10
q36 109 41 151q54 -12 88 -12h226v-17q-30 -46 -112.5 -191t-114.5 -203h113q37 0 69 34q31 31 64 84zM621 693l24 18l110 -94l106 94l23 -18q-73 -102 -117 -168h-26q-33 53 -120 168z" />
    <glyph glyph-name="uni01C7" unicode="&#x1c7;" horiz-adv-x="984" 
d="M363 0h-338v30q65 5 84 15.5t19 45.5v463q0 34 -18.5 45.5t-75.5 15.5v30h281v-30q-54 -2 -74 -14t-20 -47v-452q0 -39 13.5 -53t58.5 -14h80q49 0 77 18q51 31 114 151l28 -11q-38 -91 -64 -196q-66 3 -165 3zM677 615v30h280v-30q-48 -2 -67.5 -14.5t-19.5 -46.5v-402
q0 -75 -16 -132q-22 -74 -82 -137q-31 -32 -71.5 -52.5t-67.5 -20.5q-32 0 -58 15t-26 37q0 21 17.5 40t34.5 19q12 0 40 -26q27 -27 51 -27q25 0 49 29q36 41 36 143v514q0 37 -21 47t-79 14z" />
    <glyph glyph-name="uni01C8" unicode="&#x1c8;" horiz-adv-x="870" 
d="M363 0h-338v30q65 5 84 15.5t19 45.5v463q0 34 -18.5 45.5t-75.5 15.5v30h281v-30q-54 -2 -74 -14t-20 -47v-452q0 -39 13.5 -53t58.5 -14h80q49 0 77 18q51 31 114 151l28 -11q-38 -91 -64 -196q-66 3 -165 3zM640 389v24q74 10 148 43l6 -5q-4 -50 -4 -101v-289
q0 -113 -22 -157q-25 -52 -65 -92t-66 -55l-19 22q57 52 73.5 96t16.5 107v355q0 21 -13 30q-23 17 -55 22zM689 606q0 21 14.5 39t40.5 18q22 0 37 -17t15 -40q0 -24 -15 -40.5t-38 -16.5q-25 0 -39.5 17.5t-14.5 39.5z" />
    <glyph glyph-name="uni01C9" unicode="&#x1c9;" horiz-adv-x="511" 
d="M234 0h-209v30q42 3 52 11.5t10 34.5v493q0 43 -4 54q-2 8 -18 19.5t-43 17.5v25q70 4 149 31l4 -3q-5 -40 -5 -93v-546q0 -25 11 -33.5t53 -11.5v-29zM281 389v24q74 10 148 43l6 -5q-4 -50 -4 -101v-289q0 -113 -21 -157q-25 -52 -65.5 -92.5t-65.5 -54.5l-20 22
q57 52 73.5 95.5t16.5 107.5v355q0 21 -13 30q-23 17 -55 22zM330 606q0 21 14.5 39t40.5 18q22 0 37 -17t15 -40q0 -24 -15 -40.5t-38 -16.5q-25 0 -39.5 17.5t-14.5 39.5z" />
    <glyph glyph-name="uni01CA" unicode="&#x1ca;" horiz-adv-x="1109" 
d="M281 0h-252v30q61 5 80.5 25t19.5 84v399q0 25 -18 43q-17 17 -33.5 23t-58.5 11v30h163l398 -513v367q0 71 -18.5 90t-94.5 26v30h251v-30q-62 -4 -80 -26.5t-18 -88.5v-401q0 -76 3 -102h-65q-25 37 -63 87l-325 433v-378q0 -65 20.5 -84t90.5 -25v-30zM802 615v30h280
v-30q-48 -2 -67.5 -14.5t-19.5 -46.5v-402q0 -75 -16 -132q-22 -74 -82 -137q-31 -32 -71.5 -52.5t-67.5 -20.5q-32 0 -58 15t-26 37q0 21 17.5 40t34.5 19q12 0 40 -26q27 -27 51 -27q25 0 49 29q36 41 36 143v514q0 37 -21 47t-79 14z" />
    <glyph glyph-name="uni01CB" unicode="&#x1cb;" horiz-adv-x="994" 
d="M281 0h-252v30q61 5 80.5 25t19.5 84v399q0 25 -18 43q-17 17 -33.5 23t-58.5 11v30h163l398 -513v367q0 71 -18.5 90t-94.5 26v30h251v-30q-62 -4 -80 -26.5t-18 -88.5v-401q0 -76 3 -102h-65q-25 37 -63 87l-325 433v-378q0 -65 20.5 -84t90.5 -25v-30zM765 389v24
q74 10 148 43l6 -5q-4 -50 -4 -101v-289q0 -113 -22 -157q-25 -52 -65 -92t-66 -55l-19 22q57 52 73.5 96t16.5 107v355q0 21 -13 30q-23 17 -55 22zM814 606q0 21 14.5 39t40.5 18q22 0 36.5 -17t14.5 -40q0 -24 -14.5 -40.5t-37.5 -16.5q-25 0 -39.5 17.5t-14.5 39.5z" />
    <glyph glyph-name="uni01CC" unicode="&#x1cc;" horiz-adv-x="795" 
d="M240 0h-217v30q45 2 57 10t12 35v229q0 44 -3 54q-5 18 -52 34v21q66 12 133 43l7 -4q-3 -45 -3 -64q67 68 144 68q56 0 92 -36q43 -42 43 -124v-221q0 -27 10.5 -34.5t50.5 -10.5v-30h-219v30q4 0 10 1q40 4 50.5 9.5t13.5 26.5q2 22 2 47v187q0 52 -27 79
q-23 23 -70 23q-46 0 -77 -29q-15 -15 -19 -27t-4 -45v-227q0 -27 11.5 -34.5t54.5 -10.5v-30zM565 389v24q74 10 148 43l7 -5q-4 -50 -4 -101v-289q0 -110 -22 -157q-25 -52 -65 -92t-66 -55l-20 22q57 52 73.5 95.5t16.5 107.5v355q0 21 -12 30q-26 17 -56 22zM614 606
q0 21 14.5 39t40.5 18q23 0 37.5 -17t14.5 -40q0 -24 -14.5 -40.5t-38.5 -16.5q-25 0 -39.5 17.5t-14.5 39.5z" />
    <glyph glyph-name="uni01CD" unicode="&#x1cd;" horiz-adv-x="675" 
d="M-6 0v30q54 6 75 17.5t37 51.5q104 265 194 502q7 19 5 44h72q2 -8 8 -24q27 -70 71 -189.5t82.5 -225t44.5 -121.5q12 -30 32 -40.5t65 -14.5v-30h-265v30q36 4 51 8q28 6 18 36q-31 92 -58 162h-224q-41 -111 -52 -145q-7 -27 -0.5 -38t28.5 -15q35 -6 53 -8v-30h-237z
M214 273h200l-98 277q-63 -167 -102 -277zM178 809l15 26q23 -9 76 -32.5t71 -30.5q105 46 149 63l12 -26q-57 -36 -150 -115h-25q-112 91 -148 115z" />
    <glyph glyph-name="uni01CE" unicode="&#x1ce;" horiz-adv-x="447" 
d="M429 60v-27q-21 -24 -48.5 -36t-44.5 -12q-46 0 -61 59q-75 -59 -127 -59q-37 0 -66 31.5t-29 77.5q0 34 17 54t54 39q50 25 155 69q0 75 -1 82q-3 22 -26.5 46t-57.5 24q-9 0 -28 -9t-33 -20q-11 -8 -11 -14q0 -5 3 -11q14 -23 14 -38q0 -14 -16 -30t-36 -16
q-17 0 -31 14.5t-14 36.5q0 27 44 59q51 37 92 56.5t58 19.5q68 0 104 -62q17 -26 17 -88q0 -20 -1.5 -117.5t-1.5 -127.5q0 -19 24 -19q22 0 51 18zM278 228q-83 -36 -101 -48q-21 -14 -31 -27.5t-10 -37.5q0 -36 24 -60q16 -16 41 -16q32 0 56 20q17 17 18 41q3 60 3 128z
M84 701l25 18l109 -94l106 94l23 -18q-54 -76 -116 -168h-27q-33 53 -120 168z" />
    <glyph glyph-name="uni01CF" unicode="&#x1cf;" horiz-adv-x="349" 
d="M315 0h-281v30q56 3 75 13.5t19 47.5v463q0 16 -5 26.5t-9 16t-20 10t-21 5t-30 2.5q-6 1 -9 1v30h281v-30q-52 -3 -73 -14t-21 -47v-463q0 -35 19 -46t75 -15v-30zM12 816l14 26q24 -10 78.5 -33.5t69.5 -29.5q111 49 149 63l11 -26q-64 -41 -149 -115h-25
q-112 91 -148 115z" />
    <glyph glyph-name="uni01D0" unicode="&#x1d0;" horiz-adv-x="262" 
d="M235 0h-214v30q48 4 59 9.5t11 29.5v231q0 38 -2.5 49.5t-10.5 18.5q-15 13 -42 27v19q74 12 134 42l6 -5q-2 -32 -2 -92v-289q0 -23 10 -29.5t51 -10.5v-30zM-5 703l25 18l109 -94l106 94l23 -18q-54 -76 -116 -168h-27q-33 53 -120 168z" />
    <glyph glyph-name="uni01D1" unicode="&#x1d1;" horiz-adv-x="740" 
d="M373 -16q-123 0 -214 81q-103 97 -103 257q0 89 32.5 159.5t88.5 114.5q84 65 189 65q138 0 228 -90t90 -243q0 -130 -71 -225q-42 -56 -103.5 -87.5t-136.5 -31.5zM385 20q60 0 102 33q90 71 90 261q0 157 -76 248q-54 63 -137 63q-65 0 -106 -33q-95 -70 -95 -247
q0 -149 65 -240q61 -85 157 -85zM206 822l14 26q24 -10 78.5 -33.5t69.5 -29.5q105 46 149 63l11 -26q-53 -34 -149 -115h-25q-112 91 -148 115z" />
    <glyph glyph-name="uni01D2" unicode="&#x1d2;" horiz-adv-x="528" 
d="M268 456q98 0 160 -68q59 -66 59 -162q0 -103 -67 -173q-65 -65 -152 -65q-100 0 -161 64q-66 68 -66 171q0 123 98 193q57 40 129 40zM272 22q58 0 84 41q35 51 35 155q0 101 -43 159q-37 47 -90 47q-55 0 -88 -45t-33 -142q0 -110 45 -170q36 -45 90 -45zM131 693
l25 18l109 -94l106 94l23 -18q-54 -76 -116 -168h-27q-33 53 -120 168z" />
    <glyph glyph-name="uni01D3" unicode="&#x1d3;" horiz-adv-x="724" 
d="M24 615v30h281v-30q-55 -2 -74.5 -14t-19.5 -47v-337q0 -57 13 -87q19 -44 62 -69.5t105 -25.5q75 0 114.5 30t55.5 91q7 26 7 79v274q0 66 -17.5 82.5t-87.5 23.5v30h246v-30q-63 -6 -79 -25.5t-16 -80.5v-259q0 -60 -11 -100q-41 -166 -237 -166q-104 0 -162.5 44.5
t-76.5 111.5q-9 33 -9 96v318q0 34 -19 45.5t-75 15.5zM216 810l15 26q19 -8 72 -31t75 -32q65 29 149 63l12 -26q-57 -36 -150 -115h-25q-112 91 -148 115z" />
    <glyph glyph-name="uni01D4" unicode="&#x1d4;" horiz-adv-x="529" 
d="M506 37v-28q-122 -15 -141 -21l-5 5q-1 14 -1 54q-74 -59 -146 -59q-52 0 -90.5 37t-38.5 103v248q0 27 -60 39v29q109 0 148 9q-5 -75 -5 -115v-216q0 -33 27 -57t67 -24q46 0 73 19q25 19 25 63v251q0 9 -3 14.5t-21 13.5t-53 13l5 29q119 0 159 6q-5 -30 -5 -158v-221
q0 -21 14 -26q15 -6 51 -8zM118 694l25 18l109 -94l106 94l23 -18q-54 -76 -116 -168h-27q-33 53 -120 168z" />
    <glyph glyph-name="uni01D5" unicode="&#x1d5;" horiz-adv-x="724" 
d="M24 615v30h281v-30q-55 -2 -74.5 -14t-19.5 -47v-337q0 -57 13 -87q19 -44 62 -69.5t105 -25.5q75 0 114.5 30t55.5 91q7 26 7 79v274q0 66 -17.5 82.5t-87.5 23.5v30h246v-30q-63 -6 -79 -25.5t-16 -80.5v-259q0 -60 -11 -100q-41 -166 -237 -166q-104 0 -162.5 44.5
t-76.5 111.5q-9 33 -9 96v318q0 34 -19 45.5t-75 15.5zM243 879h276v-52h-276v52zM271 784q22 0 34.5 -13.5t12.5 -33.5q0 -46 -49 -46q-18 0 -30.5 12.5t-12.5 33.5q0 20 11.5 33.5t33.5 13.5zM489 784q21 0 34 -14t13 -33t-12.5 -32.5t-35.5 -13.5q-20 0 -32.5 13
t-12.5 32q0 23 13 35.5t33 12.5z" />
    <glyph glyph-name="uni01D6" unicode="&#x1d6;" horiz-adv-x="529" 
d="M506 37v-28q-122 -15 -141 -21l-5 5q-1 14 -1 54q-74 -59 -146 -59q-52 0 -90.5 37t-38.5 103v248q0 27 -60 39v29q109 0 148 9q-5 -75 -5 -115v-216q0 -33 27 -57t67 -24q46 0 73 19q25 19 25 63v251q0 9 -3 14.5t-21 13.5t-53 13l5 29q119 0 159 6q-5 -30 -5 -158v-221
q0 -21 14 -26q15 -6 51 -8zM163 619q19 0 32.5 -15t13.5 -35q0 -24 -14 -37t-34 -13q-16 0 -30.5 13.5t-14.5 35.5q0 20 13 35.5t34 15.5zM343 618q21 0 34.5 -14.5t13.5 -34.5t-14.5 -35t-34.5 -15q-19 0 -34 14t-15 35q0 24 15.5 37t34.5 13zM134 727h237v-52h-237v52z
" />
    <glyph glyph-name="uni01D7" unicode="&#x1d7;" horiz-adv-x="724" 
d="M24 615v30h281v-30q-55 -2 -74.5 -14t-19.5 -47v-337q0 -57 13 -87q19 -44 62 -69.5t105 -25.5q75 0 114.5 30t55.5 91q7 26 7 79v274q0 66 -17.5 82.5t-87.5 23.5v30h246v-30q-63 -6 -79 -25.5t-16 -80.5v-259q0 -60 -11 -100q-41 -166 -237 -166q-104 0 -162.5 44.5
t-76.5 111.5q-9 33 -9 96v318q0 34 -19 45.5t-75 15.5zM273 789q22 0 34.5 -14t12.5 -34q0 -22 -13.5 -34t-35.5 -12q-18 0 -31 12.5t-13 33.5q0 20 12 34t34 14zM491 788q21 0 34 -14t13 -33t-13 -32.5t-35 -13.5q-20 0 -32.5 13t-12.5 32q0 24 13 36t33 12zM379 781
l-30 13l43 122q59 -3 100 -15l3 -13z" />
    <glyph glyph-name="uni01D8" unicode="&#x1d8;" horiz-adv-x="529" 
d="M506 37v-28q-122 -15 -141 -21l-5 5q-1 14 -1 54q-74 -59 -146 -59q-52 0 -90.5 37t-38.5 103v248q0 27 -60 39v29q109 0 148 9q-5 -75 -5 -115v-216q0 -33 27 -57t67 -24q46 0 73 19q25 19 25 63v251q0 9 -3 14.5t-21 13.5t-53 13l5 29q119 0 159 6q-5 -30 -5 -158v-221
q0 -21 14 -26q15 -6 51 -8zM149 627q20 0 33 -15t13 -36q0 -24 -13.5 -37t-33.5 -13q-16 0 -31 13.5t-15 36.5q0 20 13 35.5t34 15.5zM349 626q19 0 34 -15.5t15 -34.5q0 -20 -15 -35t-35 -15q-19 0 -33.5 14t-14.5 35q0 24 15.5 37.5t33.5 13.5zM243 639l-28 12l41 121
q6 2 44 -2t53 -8v-13z" />
    <glyph glyph-name="uni01D9" unicode="&#x1d9;" horiz-adv-x="724" 
d="M24 615v30h281v-30q-55 -2 -74.5 -14t-19.5 -47v-337q0 -57 13 -87q19 -44 62 -69.5t105 -25.5q75 0 114.5 30t55.5 91q7 26 7 79v274q0 66 -17.5 82.5t-87.5 23.5v30h246v-30q-63 -6 -79 -25.5t-16 -80.5v-259q0 -60 -11 -100q-41 -166 -237 -166q-104 0 -162.5 44.5
t-76.5 111.5q-9 33 -9 96v318q0 34 -19 45.5t-75 15.5zM252 905l17 22l121 -65l118 64l17 -21l-123 -112h-27zM278 789q22 0 34 -14t12 -34q0 -22 -13.5 -34t-34.5 -12q-18 0 -31 12.5t-13 33.5q0 20 12 34t34 14zM496 788q21 0 34 -14t13 -33t-13 -32.5t-35 -13.5
q-20 0 -32.5 13t-12.5 32q0 24 13 36t33 12z" />
    <glyph glyph-name="uni01DA" unicode="&#x1da;" horiz-adv-x="529" 
d="M506 37v-28q-122 -15 -141 -21l-5 5q-1 14 -1 54q-74 -59 -146 -59q-52 0 -90.5 37t-38.5 103v248q0 27 -60 39v29q109 0 148 9q-5 -75 -5 -115v-216q0 -33 27 -57t67 -24q46 0 73 19q25 19 25 63v251q0 9 -3 14.5t-21 13.5t-53 13l5 29q119 0 159 6q-5 -30 -5 -158v-221
q0 -21 14 -26q15 -6 51 -8zM112 772l25 21l111 -82l108 81l24 -20q-68 -73 -121 -139h-26q-31 41 -121 139zM146 620q20 0 33.5 -15t13.5 -36q0 -23 -14.5 -36.5t-33.5 -13.5q-16 0 -31 14t-15 36q0 20 13 35.5t34 15.5zM347 619q18 0 33 -15.5t15 -34.5q0 -20 -14.5 -35
t-34.5 -15t-34.5 14t-14.5 35q0 24 15.5 37.5t34.5 13.5z" />
    <glyph glyph-name="uni01DB" unicode="&#x1db;" horiz-adv-x="724" 
d="M24 615v30h281v-30q-55 -2 -74.5 -14t-19.5 -47v-337q0 -57 13 -87q19 -44 62 -69.5t105 -25.5q75 0 114.5 30t55.5 91q7 26 7 79v274q0 66 -17.5 82.5t-87.5 23.5v30h246v-30q-63 -6 -79 -25.5t-16 -80.5v-259q0 -60 -11 -100q-41 -166 -237 -166q-104 0 -162.5 44.5
t-76.5 111.5q-9 33 -9 96v318q0 34 -19 45.5t-75 15.5zM275 792q22 0 34.5 -14t12.5 -34q0 -22 -13.5 -34t-35.5 -12q-18 0 -31 12.5t-13 33.5q0 20 12 34t34 14zM493 791q21 0 34 -14t13 -33t-13 -32.5t-35 -13.5q-20 0 -32.5 13t-12.5 32q0 23 13 35.5t33 12.5zM412 797
l-29 -13l-116 107l3 13q46 14 100 14z" />
    <glyph glyph-name="uni01DC" unicode="&#x1dc;" horiz-adv-x="529" 
d="M506 37v-28q-122 -15 -141 -21l-5 5q-1 14 -1 54q-74 -59 -146 -59q-52 0 -90.5 37t-38.5 103v248q0 27 -60 39v29q109 0 148 9q-5 -75 -5 -115v-216q0 -33 27 -57t67 -24q46 0 73 19q25 19 25 63v251q0 9 -3 14.5t-21 13.5t-53 13l5 29q119 0 159 6q-5 -30 -5 -158v-221
q0 -21 14 -26q15 -6 51 -8zM149 622q19 0 32.5 -15.5t13.5 -35.5q0 -24 -14 -37t-34 -13q-16 0 -30.5 13.5t-14.5 35.5q0 21 13 36.5t34 15.5zM349 621q19 0 33.5 -15.5t14.5 -34.5q0 -20 -14.5 -35t-34.5 -15q-19 0 -34 14t-15 35q0 24 15.5 37.5t34.5 13.5zM275 646
l-28 -12l-110 110v13q15 4 52.5 8t44.5 2z" />
    <glyph glyph-name="Gcaron" unicode="&#x1e6;" horiz-adv-x="724" 
d="M676 299v-31q-16 0 -41 -5q-32 -8 -32 -44v-151q0 -10 6.5 -14t27.5 -9v-21q-120 -40 -231 -40q-171 0 -264 98q-87 90 -87 245q0 170 128 267q89 67 218 67q77 0 157 -29q11 5 32 20h22q1 -36 9.5 -102t15.5 -96l-28 -8q-24 60 -48.5 96t-61.5 58q-43 26 -107 26
q-99 0 -164.5 -70.5t-65.5 -224.5q0 -151 78 -239q67 -74 169 -74q45 0 71 12q28 12 28 47v139q0 35 -35 44q-23 6 -69 9v30h272zM231 824l15 25q22 -8 75 -31t72 -31q14 6 46 19.5t59 24.5t44 18l12 -25q-42 -27 -150 -115h-25q-10 8 -39 31.5t-56 44.5t-53 39z" />
    <glyph glyph-name="gcaron" unicode="&#x1e7;" horiz-adv-x="484" 
d="M241 -197q80 0 128 34.5t48 80.5q0 61 -93 61q-129 0 -150 -3q-28 -4 -45 -22q-33 -36 -33 -66q0 -39 39 -61q40 -24 106 -24zM217 427q-26 0 -48 -22q-29 -31 -29 -100q0 -58 19 -92q22 -42 74 -42q35 0 55 26q25 35 25 100q0 61 -24 95.5t-72 34.5zM228 456
q55 0 101 -25q64 40 109 40q25 0 39.5 -11.5t14.5 -26.5q0 -22 -13 -34.5t-26 -12.5q-8 0 -23 15q-5 4 -11 9.5t-9.5 8.5t-7.5 6t-7 4.5t-6 1.5q-13 0 -35 -18q45 -51 45 -111t-38 -105q-50 -56 -135 -56q-45 0 -71 10q-31 -31 -31 -58q0 -17 18.5 -25.5t38.5 -8.5
q11 0 51 1t79 1q93 0 130 -47q24 -29 24 -68q0 -77 -79 -137q-78 -55 -193 -55q-61 0 -106 21q-57 30 -57 82q0 51 90 121q-61 32 -61 76q0 24 22 54t54 53q-39 19 -60.5 55t-21.5 79q0 71 51 117q49 44 124 44zM97 698l25 18l109 -94l106 94l23 -18q-54 -76 -116 -168h-27
q-33 53 -120 168z" />
    <glyph glyph-name="uni01F1" unicode="&#x1f1;" horiz-adv-x="1352" 
d="M221 553v-419q0 -66 9 -73q29 -28 103 -28q100 0 161 78q68 82 68 217q0 162 -97 237q-61 48 -152 48q-71 0 -84 -14q-8 -8 -8 -46zM34 0v30q58 3 76 15t18 46v463q0 33 -19 45.5t-75 15.5v30h283q126 0 202 -40q73 -38 110.5 -108.5t37.5 -158.5q0 -143 -93 -236
q-45 -47 -113.5 -74.5t-146.5 -27.5h-280zM1109 0h-346v22q43 52 212 300t192 288h-222q-41 0 -64 -15q-40 -25 -96 -140l-29 10q34 104 45 190q54 -10 129 -10h251q59 0 103 2v-21q-39 -58 -187.5 -278t-210.5 -313h213q52 0 83 19q52 33 114 141l28 -12q-37 -82 -65 -189
q-72 6 -150 6z" />
    <glyph glyph-name="uni01F2" unicode="&#x1f2;" horiz-adv-x="1156" 
d="M221 553v-419q0 -66 9 -73q29 -28 103 -28q100 0 161 78q68 82 68 217q0 162 -97 237q-61 48 -152 48q-71 0 -84 -14q-8 -8 -8 -46zM34 0v30q58 3 76 15t18 46v463q0 33 -19 45.5t-75 15.5v30h283q126 0 202 -40q73 -38 110.5 -108.5t37.5 -158.5q0 -143 -93 -236
q-45 -47 -113.5 -74.5t-146.5 -27.5h-280zM1124 151l23 -12q-24 -48 -59 -142q-36 3 -103 3h-214v19q41 60 232 391h-105q-25 0 -40.5 -8.5t-33.5 -29.5q-23 -27 -49 -77l-26 10q36 102 42 151q54 -12 87 -12h227v-17q-30 -46 -112.5 -191t-114.5 -203h112q36 0 70 34
q34 35 64 84z" />
    <glyph glyph-name="uni01F3" unicode="&#x1f3;" horiz-adv-x="970" 
d="M368 116v195q0 39 -4.5 53.5t-18.5 28.5q-30 30 -81 30q-50 0 -80 -30q-47 -47 -47 -161q0 -106 45 -158q36 -42 91 -42q41 0 67 17q28 19 28 67zM515 35v-29q-103 -10 -137 -19l-5 3q-5 20 -5 44q-72 -46 -140 -46q-77 0 -128 59q-59 64 -59 165q0 127 100 199
q65 45 146 45q39 0 81 -10q0 171 -3 179q-8 21 -74 35v27q100 4 159 27l5 -2q-5 -55 -5 -84v-528q0 -43 9 -49q18 -14 56 -16zM937 151l23 -12q-28 -57 -59 -142q-33 3 -102 3h-215v19q41 60 232 391h-105q-24 0 -39.5 -8.5t-33.5 -29.5q-25 -30 -50 -77l-25 10
q36 109 41 151q54 -12 88 -12h226v-17q-30 -46 -112.5 -191t-114.5 -203h113q37 0 69 34q31 31 64 84z" />
    <glyph glyph-name="Aringacute" unicode="&#x1fa;" horiz-adv-x="675" 
d="M341 788q41 0 65 -18.5t24 -45.5t-24.5 -45.5t-64.5 -18.5q-41 0 -65 18.5t-24 45.5t24 45.5t65 18.5zM339 759q-48 0 -48 -35q0 -17 13.5 -26.5t35.5 -9.5q48 0 48 38q0 15 -13.5 24t-35.5 9zM315 823l84 97q11 1 39.5 -10t40.5 -19v-15l-149 -71zM-6 0v30q54 6 75 17.5
t37 51.5q104 265 194 502q7 19 5 44h72q2 -8 8 -24q27 -70 71 -189.5t82.5 -225t44.5 -121.5q12 -30 32 -40.5t65 -14.5v-30h-265v30q36 4 51 8q28 6 18 36q-31 92 -58 162h-224q-41 -111 -52 -145q-7 -27 -0.5 -38t28.5 -15q35 -6 53 -8v-30h-237zM214 273h200l-98 277
q-63 -167 -102 -277z" />
    <glyph glyph-name="aringacute" unicode="&#x1fb;" horiz-adv-x="447" 
d="M214 614q43 0 65 -18t22 -46q0 -25 -22.5 -43t-64.5 -18t-63 17.5t-21 43.5q0 27 21 45.5t63 18.5zM213 584q-20 0 -33 -9.5t-13 -24.5q0 -31 47 -31t47 33q0 14 -14 23t-34 9zM187 653l104 105q18 -2 68 -36v-11l-154 -75zM429 60v-27q-21 -24 -48.5 -36t-44.5 -12
q-46 0 -61 59q-75 -59 -127 -59q-37 0 -66 31.5t-29 77.5q0 34 17 54t54 39q50 25 155 69q0 75 -1 82q-3 22 -26.5 46t-57.5 24q-9 0 -28 -9t-33 -20q-11 -8 -11 -14q0 -5 3 -11q14 -23 14 -38q0 -14 -16 -30t-36 -16q-17 0 -31 14.5t-14 36.5q0 27 44 59q51 37 92 56.5
t58 19.5q68 0 104 -62q17 -26 17 -88q0 -20 -1.5 -117.5t-1.5 -127.5q0 -19 24 -19q22 0 51 18zM278 228q-83 -36 -101 -48q-21 -14 -31 -27.5t-10 -37.5q0 -36 24 -60q16 -16 41 -16q32 0 56 20q17 17 18 41q3 60 3 128z" />
    <glyph glyph-name="AEacute" unicode="&#x1fc;" horiz-adv-x="958" 
d="M295 333h163v272q-82 -130 -163 -272zM238 0h-254v30q25 2 31 3q53 9 91 65q37 54 288 468q8 14 10.5 21t-2 13.5t-20.5 8.5q-48 5 -81 7v29h421q99 0 131 6q4 -75 26 -171l-27 -8q-49 106 -92 129q-16 9 -62 9h-117q-19 0 -24.5 -8t-5.5 -33v-236h102q45 1 60 23t25 85
h27q-3 -114 -3 -125q0 -8 3 -128h-28q-7 33 -9 43.5t-8.5 28.5t-14 22.5t-20 9t-32.5 4.5h-102v-189q0 -47 15.5 -59.5t69.5 -12.5h71q41 0 57 3t34 14q49 31 107 143l28 -10q-35 -86 -58 -189q-76 4 -143 4h-378v30q36 2 66 7q38 7 38 54v205h-185q-41 -68 -111 -194
q-31 -55 22 -65q6 -1 54 -7v-30zM508 689l-16 22l140 133q11 0 42 -12.5t42 -19.5l-1 -16z" />
    <glyph glyph-name="aeacute" unicode="&#x1fd;" horiz-adv-x="688" 
d="M280 237q-79 -26 -121 -64q-23 -17 -23 -51q0 -41 23 -64q18 -19 39 -19q44 0 104 59q-22 52 -22 139zM630 104l18 -18q-66 -98 -180 -98q-99 0 -154 86q-93 -89 -164 -89q-37 0 -67 34t-30 82q0 31 16 50.5t50 37.5q69 40 161 74v75q-3 22 -24.5 46t-57.5 24
q-10 0 -31.5 -8.5t-34.5 -19.5q-11 -8 -11 -14q0 -5 4 -12q14 -23 14 -38q0 -14 -16 -30t-36 -16q-17 0 -31 14.5t-14 36.5q0 27 44 59q53 38 94 56.5t59 18.5q31 0 58.5 -16.5t43.5 -42.5q60 60 138 60q80 0 125 -50t45 -113q0 -41 -9 -42q-27 -3 -284 -3v-9
q0 -108 46 -157q42 -43 94 -43q38 0 69 13.5t65 51.5zM358 278q124 0 176 3q19 1 25 10t6 28q0 37 -24.5 72t-72.5 35q-41 0 -72 -36.5t-38 -111.5zM332 517l-23 15l102 163q6 2 37.5 -7t46.5 -16l-1 -11z" />
    <glyph glyph-name="Oslashacute" unicode="&#x1fe;" horiz-adv-x="740" 
d="M533 817l-207 -106l-16 21l140 133q11 0 42 -12.5t42 -19.5zM622 670l-52 -77q114 -93 114 -265q0 -129 -71 -224q-42 -56 -103.5 -87.5t-136.5 -31.5q-100 0 -177 52l-55 -82l-27 20l55 82q-1 2 -4 4.5t-5 3.5q-104 96 -104 257q0 89 32.5 159.5t88.5 114.5
q82 65 189 65q100 0 177 -49l52 77zM213 122l294 437q0 1 -2 3q-53 63 -141 63q-64 0 -108 -33q-97 -73 -97 -247q0 -136 54 -223zM528 530l-295 -438q60 -71 152 -71q62 0 102 32q94 73 94 261q0 131 -53 216z" />
    <glyph glyph-name="oslashacute" unicode="&#x1ff;" horiz-adv-x="528" 
d="M389 661l-162 -144l-23 15l102 163q6 2 37.5 -7t46.5 -16zM444 458l-36 -52q79 -66 79 -183q0 -101 -63 -170t-161 -69q-68 0 -121 36l-42 -61l-26 19l43 62q-76 66 -76 179q0 105 65.5 171t160.5 66q66 0 116 -32l36 52zM156 97l196 283q-35 45 -92 45
q-54 0 -89.5 -52.5t-35.5 -146.5q0 -79 21 -129zM369 350l-196 -284q35 -51 101 -51q52 0 86 50.5t34 146.5q0 84 -25 138z" />
    <glyph glyph-name="uni0218" unicode="&#x218;" horiz-adv-x="543" 
d="M57 198l30 7q35 -110 100 -158q38 -26 84 -26q58 0 90 33t32 82q0 48 -29 81t-103 65q-103 45 -141.5 91t-38.5 116q0 68 51.5 120t146.5 52q67 0 125 -28q4 2 29 20h21q-2 -53 23 -198l-28 -7q-18 51 -45 93t-53 60q-35 24 -76 24q-53 0 -81.5 -31t-28.5 -77
q0 -51 27 -81.5t106 -63.5q106 -44 145.5 -90t39.5 -117q0 -76 -59 -128t-155 -52q-47 0 -123 20q-21 6 -56 -2q-7 81 -33 195zM214 -279l-8 28q74 27 74 64q0 15 -10.5 23.5t-39.5 12.5q-33 5 -33 37q0 17 14 30t38 13q33 0 58.5 -23.5t25.5 -66.5q0 -49 -36 -79t-83 -39z
" />
    <glyph glyph-name="uni0219" unicode="&#x219;" horiz-adv-x="367" 
d="M330 312l-30 -7q-19 57 -54 92q-29 27 -68 27q-27 0 -45.5 -18.5t-18.5 -48.5q0 -32 19.5 -52.5t69.5 -43.5q70 -33 98.5 -64t28.5 -79q0 -57 -40.5 -93.5t-105.5 -36.5q-31 0 -89 14q-16 3 -39 -1q-5 53 -27 143l29 9q19 -68 64 -109q30 -25 67 -25q26 0 45.5 15.5
t19.5 52.5q0 30 -20 49.5t-80 50.5q-60 29 -85.5 61.5t-25.5 80.5q0 55 39.5 91t106.5 36q41 0 80 -15q14 3 22 10h16q7 -65 23 -139zM140 -278l-8 28q74 27 74 64q0 15 -10.5 23.5t-39.5 12.5q-33 7 -33 37q0 17 13.5 30.5t38.5 13.5q33 0 58.5 -23.5t25.5 -66.5
q0 -49 -36 -79.5t-83 -39.5z" />
    <glyph glyph-name="uni021A" unicode="&#x21a;" horiz-adv-x="681" 
d="M491 0h-301v30q64 4 84 14t20 47v519h-96q-32 0 -53 -15q-43 -33 -82 -128l-27 7q23 121 24 181q50 -10 116 -10h330q66 0 116 10q1 -60 24 -181l-27 -7q-40 95 -83 128q-20 15 -52 15h-97v-519q0 -36 19 -45.5t85 -15.5v-30zM284 -261l-8 28q74 27 74 64q0 15 -10.5 24
t-39.5 13q-33 6 -33 36q0 17 14 30.5t38 13.5q33 0 58.5 -23.5t25.5 -66.5q0 -49 -35.5 -79t-83.5 -40z" />
    <glyph glyph-name="uni021B" unicode="&#x21b;" horiz-adv-x="323" 
d="M301 67v-28q-45 -49 -108 -49q-44 0 -77 26.5t-33 91.5v287h-58v22q59 32 127 120h26q-8 -46 -10 -93h134q2 -8 0 -24.5t-6 -24.5h-131v-284q0 -33 17 -51t45 -18q41 0 74 25zM122 -274l-8 28q74 27 74 64q0 15 -10.5 23.5t-39.5 12.5q-33 8 -33 37q0 17 14 30.5t38 13.5
q33 0 58.5 -23.5t25.5 -66.5q0 -49 -36 -79.5t-83 -39.5z" />
    <glyph glyph-name="uni021C" unicode="&#x21c;" horiz-adv-x="581" 
d="M158 286v29q48 34 134.5 121.5t130.5 139.5h-241q-27 0 -51 -21t-58 -80l-24 10q42 111 51 166q30 -6 123 -6h286v-24q-32 -44 -117 -132.5t-129 -129.5q50 2 95.5 -8t83.5 -31.5t60.5 -61t22.5 -91.5q0 -81 -41.5 -137.5t-99.5 -80t-125 -23.5q-89 0 -154 36t-65 76
q0 21 18 38.5t42 17.5q31 0 50 -64q13 -43 31 -54q24 -14 73 -14q82 0 125.5 53t43.5 136q0 77 -40.5 118t-119.5 41q-50 0 -105 -24z" />
    <glyph glyph-name="uni021D" unicode="&#x21d;" horiz-adv-x="434" 
d="M101 97v28q45 43 107.5 119.5t101.5 132.5h-157q-48 0 -91 -81l-23 10q37 102 43 142q16 -4 95 -4h212v-18q-50 -80 -197 -251q85 -3 142 -52t57 -142q0 -96 -63 -161.5t-152 -65.5q-62 0 -109 28t-47 58q0 19 16.5 36t35.5 17q13 0 22.5 -12.5t19.5 -43.5q12 -38 25 -43
q13 -6 37 -6q52 0 90 43t38 132q0 70 -37 111t-94 41q-36 0 -72 -18z" />
    <glyph glyph-name="uni0232" unicode="&#x232;" horiz-adv-x="609" 
d="M447 0h-281v30q62 4 78.5 15.5t16.5 45.5v146q0 22 -9 40q-28 61 -156 282q-19 32 -37 41t-61 15v30h259v-29q-41 -5 -54 -8q-24 -6 -13 -27q7 -14 147 -272q73 130 132 253q20 37 -14 44q-27 6 -66 9v30h229v-30q-50 -4 -71 -18t-43 -55q-107 -192 -143 -264
q-7 -14 -7 -41v-146q0 -37 17.5 -47t75.5 -14v-30zM188 781h266v-54h-266v54z" />
    <glyph glyph-name="uni0233" unicode="&#x233;" horiz-adv-x="476" 
d="M-7 414v30h218v-30q-35 -3 -45 -5q-23 -5 -14 -29q78 -207 112 -280q48 130 94 267q12 34 -14 40q-17 4 -55 7v30h180v-30q-22 -4 -31 -7t-19 -13t-18 -29q-36 -87 -122 -323q-12 -33 -30.5 -86.5t-21.5 -60.5q-28 -77 -55 -109t-65 -32q-22 0 -39.5 15.5t-17.5 36.5
q0 26 16.5 44.5t33.5 18.5q9 0 34 -20q13 -11 22 -11q11 0 25 31q15 35 41 121q-5 18 -69.5 177.5t-86.5 206.5q-8 17 -20 25.5t-19.5 9.5t-33.5 5zM127 627h248v-54h-248v54z" />
    <glyph glyph-name="uni0237" unicode="&#x237;" horiz-adv-x="254" 
d="M24 389v24q74 10 148 43l6 -5q-4 -50 -4 -101v-289q0 -113 -21 -157q-25 -52 -65.5 -92.5t-65.5 -54.5l-20 22q57 52 73.5 95.5t16.5 107.5v355q0 21 -13 30q-23 17 -55 22z" />
    <glyph glyph-name="uni0251" unicode="&#x251;" horiz-adv-x="528" 
d="M355 193v113q0 44 -8 63t-31 37q-24 17 -65 17q-52 0 -85.5 -51.5t-33.5 -146.5q0 -100 32 -144t72 -44q54 0 86.5 42t32.5 114zM518 52v-27q-28 -41 -86 -41q-28 0 -52 21.5t-24 75.5q-50 -96 -149 -96q-67 0 -116.5 62.5t-49.5 157.5q0 108 67.5 179.5t163.5 71.5
q66 0 103 -26l50 26h18q-5 -55 -5 -109v-257q0 -53 32 -53q26 0 48 15z" />
    <glyph glyph-name="uni0259" unicode="&#x259;" horiz-adv-x="460" 
d="M49 216h289q1 91 -37 137t-101 46q-44 0 -73.5 -16t-65.5 -50l-15 21q74 102 185 102q85 0 136.5 -66t51.5 -160q0 -115 -56.5 -180.5t-140.5 -65.5t-133 56.5t-49 142.5q0 33 9 33zM338 186h-192q-18 0 -18 -28q0 -62 26.5 -102t77.5 -40q95 0 106 170z" />
    <glyph glyph-name="uni0261" unicode="&#x261;" horiz-adv-x="511" 
d="M355 176v133q0 48 -10 67.5t-38 35.5q-20 12 -56 12q-51 0 -85 -52t-34 -144q0 -99 33 -145t79 -46q53 0 82 36.5t29 102.5zM423 456h20q-6 -68 -6 -109v-317q0 -76 -20 -132.5t-53 -86.5t-69 -43.5t-75 -13.5q-84 0 -127.5 30t-43.5 61q0 22 18.5 38.5t37.5 16.5
q29 0 43 -48q11 -44 29 -54q19 -10 44 -10q65 0 99.5 52.5t34.5 191.5v40q-29 -51 -62.5 -69t-79.5 -18q-69 0 -120.5 61.5t-51.5 158.5q0 113 67 182t164 69q73 0 104 -26q11 7 47 26z" />
    <glyph glyph-name="uni0275" unicode="&#x275;" horiz-adv-x="525" 
d="M391 211h-255q3 -84 39 -139.5t96 -55.5q113 0 120 195zM265 456q100 0 159 -67t59 -169q0 -95 -61 -165.5t-155 -70.5q-106 0 -166 69t-60 166q0 103 66 170t158 67zM136 244h252q-3 84 -39 132.5t-95 48.5q-54 0 -85.5 -46.5t-32.5 -134.5z" />
    <glyph glyph-name="uni02BB" unicode="&#x2bb;" horiz-adv-x="317" 
d="M224 710l11 -22q-40 -24 -63.5 -52t-23.5 -51q0 -5 1 -9t2.5 -7.5t5 -6.5t5.5 -5t7 -4.5t8 -3.5t9.5 -3t9.5 -3t10.5 -3t10.5 -3q10 -3 10 -24q0 -18 -14.5 -33t-39.5 -15q-31 0 -57 22.5t-26 68.5q0 55 45 96.5t89 57.5z" />
    <glyph glyph-name="uni02BC" unicode="&#x2bc;" horiz-adv-x="308" 
d="M88 464l-12 23q88 53 88 102q0 37 -72 49q-7 2 -7 23q0 18 15 33t39 15q31 0 57 -23t26 -69q0 -54 -45.5 -96.5t-88.5 -56.5z" />
    <glyph glyph-name="uni02BE" unicode="&#x2be;" horiz-adv-x="217" 
d="M55 609v36q57 0 92.5 -33t35.5 -80t-35.5 -80t-92.5 -33v36q27 4 48 24.5t21 52.5q0 33 -21.5 53.5t-47.5 23.5z" />
    <glyph glyph-name="uni02BF" unicode="&#x2bf;" horiz-adv-x="217" 
d="M162 455v-36q-57 0 -92.5 33t-35.5 80t35.5 80t92.5 33v-36q-27 -4 -48 -24.5t-21 -52.5q0 -33 21.5 -53.5t47.5 -23.5z" />
    <glyph glyph-name="circumflex" unicode="&#x2c6;" 
d="M331 538l-24 -19l-110 95l-106 -95l-23 19q73 102 117 168h26q41 -65 120 -168z" />
    <glyph glyph-name="caron" unicode="&#x2c7;" 
d="M68 693l25 18l109 -94l106 94l23 -18q-54 -76 -116 -168h-27q-33 53 -120 168z" />
    <glyph glyph-name="uni02C8" unicode="&#x2c8;" 
d="M170 700h57v-177h-57v177z" />
    <glyph glyph-name="uni02C9" unicode="&#x2c9;" 
d="M74 627h248v-54h-248v54z" />
    <glyph glyph-name="uni02CA" unicode="&#x2ca;" 
d="M186 517l-23 15l102 163q6 2 37.5 -7t46.5 -16l-1 -11z" />
    <glyph glyph-name="uni02CB" unicode="&#x2cb;" 
d="M240 530l-21 -13l-153 151l3 13q13 5 49 11t43 4z" />
    <glyph glyph-name="uni02CC" unicode="&#x2cc;" 
d="M170 -80h57v-177h-57v177z" />
    <glyph glyph-name="breve" unicode="&#x2d8;" 
d="M317 679l26 -5q-14 -60 -51 -96.5t-97 -36.5q-62 0 -97.5 36.5t-44.5 96.5l29 5q29 -70 117 -70q84 0 118 70z" />
    <glyph glyph-name="dotaccent" unicode="&#x2d9;" 
d="M145 605q0 21 14.5 39.5t40.5 18.5q23 0 37.5 -17.5t14.5 -40.5q0 -24 -14.5 -40t-38.5 -16q-25 0 -39.5 17t-14.5 39z" />
    <glyph glyph-name="ring" unicode="&#x2da;" 
d="M199 687q38 0 61 -25.5t23 -60.5t-23 -59.5t-61 -24.5t-61 24.5t-23 59.5t23 60.5t61 25.5zM198 656q-20 0 -33.5 -16t-13.5 -39q0 -25 14 -39.5t34 -14.5q21 0 34.5 14.5t13.5 41.5q0 22 -14.5 37.5t-34.5 15.5z" />
    <glyph glyph-name="ogonek" unicode="&#x2db;" 
d="M242 7h29q-43 -34 -66 -72.5t-23 -62.5q0 -26 13.5 -40t35.5 -14q32 0 66 22l7 -24q-36 -54 -113 -54q-39 0 -62.5 23t-23.5 56q0 77 137 166z" />
    <glyph glyph-name="tilde" unicode="&#x2dc;" 
d="M333 661l25 -8q-6 -37 -29.5 -69t-66.5 -32q-32 0 -80 24q-43 18 -62 18q-21 0 -32.5 -10.5t-22.5 -35.5l-25 9q6 43 30.5 70.5t64.5 27.5q31 0 80 -22q43 -19 62 -19t32 9t24 38z" />
    <glyph glyph-name="hungarumlaut" unicode="&#x2dd;" 
d="M116 528l-21 14l80 154q6 2 34.5 -4t39.5 -13l1 -9zM278 528l-20 14l80 154q6 2 34 -4t41 -13l1 -9z" />
    <glyph glyph-name="gravecomb" unicode="&#x300;" horiz-adv-x="0" 
d="M42 530l-21 -13l-153 151l3 13q13 5 49 11t43 4z" />
    <glyph glyph-name="acutecomb" unicode="&#x301;" horiz-adv-x="0" 
d="M-12 517l-23 15l102 163q6 2 37.5 -7t46.5 -16l-1 -11z" />
    <glyph glyph-name="uni0302" unicode="&#x302;" horiz-adv-x="0" 
d="M133 538l-24 -19l-110 95l-106 -95l-23 19q73 102 117 168h26q41 -65 120 -168z" />
    <glyph glyph-name="tildecomb" unicode="&#x303;" horiz-adv-x="0" 
d="M135 661l25 -8q-6 -37 -29.5 -69t-66.5 -32q-32 0 -80 24q-43 18 -62 18q-21 0 -32.5 -10.5t-22.5 -35.5l-25 9q6 43 30.5 70.5t64.5 27.5q31 0 80 -22q43 -19 62 -19t32 9t24 38z" />
    <glyph glyph-name="uni0304" unicode="&#x304;" horiz-adv-x="0" 
d="M-124 627h248v-54h-248v54z" />
    <glyph glyph-name="uni0306" unicode="&#x306;" horiz-adv-x="0" 
d="M119 679l26 -5q-14 -60 -51 -96.5t-97 -36.5q-62 0 -97.5 36.5t-44.5 96.5l29 5q29 -70 117 -70q84 0 118 70z" />
    <glyph glyph-name="uni0307" unicode="&#x307;" horiz-adv-x="0" 
d="M-53 605q0 21 14.5 39.5t40.5 18.5q23 0 37.5 -17.5t14.5 -40.5q0 -24 -14.5 -40t-38.5 -16q-25 0 -39.5 17t-14.5 39z" />
    <glyph glyph-name="uni0308" unicode="&#x308;" horiz-adv-x="0" 
d="M-89 658q21 0 34 -14.5t13 -35.5q0 -25 -14.5 -37.5t-34.5 -12.5q-17 0 -32 13.5t-15 35.5q0 21 13.5 36t35.5 15zM90 657q23 0 36 -15t13 -34q0 -20 -14 -35t-36 -15q-19 0 -33 14t-14 35q0 23 14 36.5t34 13.5z" />
    <glyph glyph-name="hookabovecomb" unicode="&#x309;" horiz-adv-x="0" 
d="M-18 503l-17 25q64 41 64 79q0 19 -11 32t-34 13q-34 0 -61 -29l-16 23q42 60 109 60q34 0 58 -22t24 -56q0 -80 -116 -125z" />
    <glyph glyph-name="uni030A" unicode="&#x30a;" horiz-adv-x="0" 
d="M1 687q38 0 61 -25.5t23 -60.5t-23 -59.5t-61 -24.5t-61 24.5t-23 59.5t23 60.5t61 25.5zM0 656q-20 0 -33.5 -16t-13.5 -39q0 -25 14 -39.5t34 -14.5q21 0 34.5 14.5t13.5 41.5q0 22 -14.5 37.5t-34.5 15.5z" />
    <glyph glyph-name="uni030B" unicode="&#x30b;" horiz-adv-x="0" 
d="M-82 528l-21 14l80 154q6 2 34.5 -4t39.5 -13l1 -9zM80 528l-20 14l80 154q6 2 34 -4t41 -13l1 -9z" />
    <glyph glyph-name="uni030C" unicode="&#x30c;" horiz-adv-x="0" 
d="M-130 693l25 18l109 -94l106 94l23 -18q-54 -76 -116 -168h-27q-33 53 -120 168z" />
    <glyph glyph-name="uni031B" unicode="&#x31b;" horiz-adv-x="0" 
d="M3 411l-14 22q46 16 46 37q0 12 -19 37q-13 16 -13 23q0 16 23.5 34.5t41.5 18.5q13 0 22.5 -14.5t9.5 -41.5q0 -40 -28 -72t-69 -44z" />
    <glyph glyph-name="dotbelowcomb" unicode="&#x323;" horiz-adv-x="0" 
d="M-1 -218q-20 0 -38 15.5t-18 42.5t16 44t41 17t41 -17t16 -43q0 -28 -18 -43.5t-40 -15.5z" />
    <glyph glyph-name="uni0324" unicode="&#x324;" horiz-adv-x="0" 
d="M-89 -82q20 0 33 -14.5t13 -35.5q0 -25 -14 -37.5t-35 -12.5q-17 0 -31.5 13.5t-14.5 35.5q0 21 13.5 36t35.5 15zM90 -83q23 0 36 -15t13 -34q0 -20 -14 -35t-36 -15q-19 0 -33 14t-14 35q0 23 14 36.5t34 13.5z" />
    <glyph glyph-name="uni0326" unicode="&#x326;" horiz-adv-x="0" 
d="M-47 -261l-8 28q74 27 74 64q0 15 -10.5 24t-39.5 13q-33 6 -33 36q0 17 14 30.5t38 13.5q33 0 58.5 -23.5t25.5 -66.5q0 -49 -35.5 -79t-83.5 -40z" />
    <glyph glyph-name="uni0327" unicode="&#x327;" horiz-adv-x="0" 
d="M9 5h32l-42 -49q92 -27 92 -96q0 -33 -29.5 -60.5t-72.5 -27.5q-32 0 -55 13t-23 31q0 10 10.5 20.5t24.5 11.5q9 0 30 -32q10 -17 28 -17q13 0 22.5 11t9.5 26q0 59 -107 64l-1 16z" />
    <glyph glyph-name="uni0328" unicode="&#x328;" horiz-adv-x="0" 
d="M44 7h29q-43 -34 -66 -72.5t-23 -62.5q0 -26 13.5 -40t35.5 -14q32 0 66 22l7 -24q-36 -54 -113 -54q-39 0 -62.5 23t-23.5 56q0 77 137 166z" />
    <glyph glyph-name="uni032E" unicode="&#x32e;" horiz-adv-x="0" 
d="M118 -66l27 -5q-34 -133 -149 -133q-61 0 -97 36.5t-44 96.5l28 5q29 -70 117 -70q83 0 118 70z" />
    <glyph glyph-name="uni0331" unicode="&#x331;" horiz-adv-x="0" 
d="M-124 -102h248v-54h-248v54z" />
    <glyph glyph-name="uni0374" unicode="&#x374;" horiz-adv-x="201" 
d="M90 412h-30q3 168 3 245q12 6 56 6q33 0 46 -5q-30 -116 -75 -246z" />
    <glyph glyph-name="uni0375" unicode="&#x375;" horiz-adv-x="201" 
d="M126 204h28q-2 -110 -2 -245q-13 -7 -55 -7q-35 0 -47 6q40 139 76 246z" />
    <glyph glyph-name="uni037A" unicode="&#x37a;" 
d="M295 -124l26 -13q-28 -72 -95 -72q-35 0 -58 24t-23 70q0 20 4 54l83 3q-4 -24 -4 -53q0 -47 28 -47q22 0 39 34z" />
    <glyph glyph-name="uni037E" unicode="&#x37e;" horiz-adv-x="317" 
d="M157 297q-22 0 -41 16t-19 46q0 28 17.5 46.5t43.5 18.5q28 0 45 -18t17 -46q0 -31 -20 -47t-43 -16zM74 -151l-11 25q52 27 80.5 59t28.5 58q0 18 -14.5 30t-55.5 19q-12 2 -12 30q0 21 14.5 37t45.5 16q30 0 55 -24.5t25 -73.5q0 -37 -18.5 -70t-46 -54t-50.5 -34
t-41 -18z" />
    <glyph glyph-name="tonos" unicode="&#x384;" 
d="M200 517l-23 15l101 163q6 2 38 -7t47 -16l-1 -11z" />
    <glyph glyph-name="dieresistonos" unicode="&#x385;" 
d="M78 648q18 0 31 -14t13 -32q0 -24 -13.5 -36.5t-31.5 -12.5q-15 0 -29 13t-14 33t12.5 34.5t31.5 14.5zM336 648q18 0 31 -14t13 -32q0 -24 -13 -36.5t-32 -12.5q-16 0 -29.5 13t-13.5 33t12 34.5t32 14.5zM185 512l-27 6l27 188q7 2 44 1.5t45 -3.5l1 -10z" />
    <glyph glyph-name="Alphatonos" unicode="&#x386;" horiz-adv-x="704" 
d="M22 0v30q54 6 75 17.5t37 51.5q104 265 194 502q7 19 5 44h72q2 -4 4.5 -12t3.5 -12q27 -70 71 -189.5t82.5 -225t44.5 -121.5q12 -30 32 -40.5t65 -14.5v-30h-265v30q36 4 51 8q17 4 20.5 12.5t-2.5 23.5q-31 92 -58 162h-224q-41 -111 -52 -145q-7 -27 -0.5 -38
t28.5 -15q35 -6 53 -8v-30h-237zM242 273h200l-98 277q-63 -167 -102 -277zM51 409l-31 5l41 246q47 2 98 -13v-11z" />
    <glyph glyph-name="anoteleia" unicode="&#x387;" horiz-adv-x="284" 
d="M141 296q-24 0 -42 16t-18 46q0 29 17.5 47.5t43.5 18.5q27 0 44 -18.5t17 -46.5q0 -30 -19.5 -46.5t-42.5 -16.5z" />
    <glyph glyph-name="Epsilontonos" unicode="&#x388;" horiz-adv-x="828" 
d="M602 0h-378v30q66 3 85.5 14t19.5 47v463q0 37 -19.5 47t-75.5 14v30h358q98 0 132 6q2 -67 26 -171l-28 -8q-49 106 -92 129q-16 9 -61 9h-118q-19 0 -24 -7.5t-5 -33.5v-221h99q45 0 60.5 22t24.5 85h30q-4 -70 -4 -124q0 -49 4 -129h-31q-14 73 -26 88q-15 21 -58 21
h-99v-204q0 -47 15 -59.5t69 -12.5h71q41 0 57 3t34 14q49 31 107 143l28 -10q-35 -86 -58 -189q-76 4 -143 4zM51 409l-31 5l41 246q47 2 98 -13v-11z" />
    <glyph glyph-name="Etatonos" unicode="&#x389;" horiz-adv-x="961" 
d="M517 0h-281v30q56 4 75 15t19 46v463q0 36 -19 47t-75 14v30h281v-30q-56 -3 -75 -14.5t-19 -46.5v-199h317v199q0 35 -20 46.5t-74 14.5v30h281v-30q-28 -2 -41 -4t-27.5 -8t-20 -17.5t-5.5 -31.5v-463q0 -32 18 -45t76 -16v-30h-281v30q55 3 74.5 13.5t19.5 47.5v227
h-317v-227q0 -36 20 -46.5t74 -14.5v-30zM51 409l-31 5l41 246q47 2 98 -13v-11z" />
    <glyph glyph-name="Iotatonos" unicode="&#x38a;" horiz-adv-x="553" 
d="M519 0h-281v30q56 3 75 13.5t19 47.5v463q0 16 -5 26.5t-9 16t-20 10t-21 5t-30 2.5q-6 1 -9 1v30h281v-30q-35 -2 -52.5 -6t-29 -17t-11.5 -38v-463q0 -35 18.5 -46t74.5 -15v-30zM51 409l-31 5l41 246q47 2 98 -13v-11z" />
    <glyph glyph-name="Omicrontonos" unicode="&#x38c;" horiz-adv-x="887" 
d="M521 -16q-125 0 -214 81q-104 97 -104 257q0 89 32.5 159.5t89.5 114.5q82 65 189 65q138 0 228 -90t90 -243q0 -130 -71 -225q-91 -119 -240 -119zM532 20q62 0 102 33q90 69 90 261q0 158 -75 248q-54 63 -137 63q-64 0 -107 -33q-94 -71 -94 -247q0 -148 64 -240
q61 -85 157 -85zM51 409l-31 5l41 246q47 2 98 -13v-11z" />
    <glyph glyph-name="Upsilontonos" unicode="&#x38e;" horiz-adv-x="934" 
d="M706 0h-301v30q36 2 66 7q38 7 38 54v187q0 133 -15 181q-22 71 -67 110t-99 39q-59 0 -98 -19v27q46 39 134 39q45 0 83 -18.5t61 -47.5t37 -58t20 -56q20 54 51.5 92t64.5 56t58.5 25t47.5 7q83 0 119 -35v-29q-41 19 -98 19q-77 0 -125.5 -52.5t-68.5 -140.5
q-12 -50 -12 -137v-189q0 -46 40 -54q26 -5 64 -7v-30zM51 409l-31 5l41 246q47 2 98 -13v-11z" />
    <glyph glyph-name="Omegatonos" unicode="&#x38f;" horiz-adv-x="904" 
d="M453 0h-176q-26 0 -49 -0.5t-36.5 -1t-17.5 -0.5q-1 45 -21 175l27 5q23 -59 44 -79t47 -20h123l1 8q-189 90 -189 288q0 126 83 206t224 80q138 0 217 -79t79 -206q0 -91 -52.5 -165t-145.5 -124v-8h121q48 0 98 95l26 -7q-35 -106 -47 -169q-36 2 -94 2h-166l3 80
q150 92 150 295q0 120 -51 185t-146 65q-93 0 -143 -67.5t-50 -180.5q0 -195 141 -298v-79zM51 409l-31 5l41 246q47 2 98 -13v-11z" />
    <glyph glyph-name="iotadieresistonos" unicode="&#x390;" horiz-adv-x="250" 
d="M246 54v-30q-26 -36 -83 -36q-43 0 -62 29t-19 70v357h82v-362q0 -44 36 -44q29 0 46 16zM4 648q18 0 31.5 -14t13.5 -32q0 -24 -14 -36.5t-32 -12.5q-15 0 -28.5 13t-13.5 33t12 34.5t31 14.5zM263 648q18 0 30.5 -14t12.5 -32q0 -24 -13 -36.5t-31 -12.5q-16 0 -30 13
t-14 33t12.5 34.5t32.5 14.5zM111 512l-27 6l27 188q7 2 44 1.5t45 -3.5l1 -10z" />
    <glyph glyph-name="Alpha" unicode="&#x391;" horiz-adv-x="675" 
d="M-6 0v30q54 6 75 17.5t37 51.5q104 265 194 502q7 19 5 44h72q2 -8 8 -24q27 -70 71 -189.5t82.5 -225t44.5 -121.5q12 -30 32 -40.5t65 -14.5v-30h-265v30q36 4 51 8q28 6 18 36q-31 92 -58 162h-224q-41 -111 -52 -145q-7 -27 -0.5 -38t28.5 -15q35 -6 53 -8v-30h-237z
M214 273h200l-98 277q-63 -167 -102 -277z" />
    <glyph glyph-name="Beta" unicode="&#x392;" horiz-adv-x="638" 
d="M221 329v-221q0 -47 13 -57q27 -19 81 -19q28 0 55 8t51 25t39 48t15 72q0 144 -185 144h-69zM221 573v-210h69q151 0 151 127q0 123 -144 123q-58 0 -69 -13q-7 -9 -7 -27zM34 0v30q58 4 76 15t18 46v463q0 34 -18.5 45.5t-75.5 15.5v30h270q98 0 144 -17
q91 -35 91 -126q0 -68 -45 -104.5t-102 -46.5q185 -25 185 -158q0 -93 -73 -143t-191 -50h-279z" />
    <glyph glyph-name="Gamma" unicode="&#x393;" horiz-adv-x="586" 
d="M325 0h-291v30q52 3 73 14.5t21 46.5v463q0 17 -4.5 27.5t-10 16.5t-20.5 9.5t-24.5 4.5t-34.5 3v30h376q81 0 113 4q-2 -21 8 -89t17 -96l-29 -8q-18 41 -28 61.5t-26 44t-31 34.5q-22 15 -56 15h-126q-19 0 -25 -6.5t-6 -26.5v-487q0 -37 19 -46.5t85 -14.5v-30z" />
    <glyph glyph-name="uni0394" unicode="&#x394;" horiz-adv-x="680" 
d="M524 0h-377q-67 0 -100 -3v36q8 14 59 133q108 249 179 430q9 23 15 51h61q5 -17 13 -36q93 -213 192 -432q57 -127 67 -146l-2 -36q-51 3 -107 3zM117 55h390q10 0 6 12q-14 33 -103 238t-105 244q-21 -56 -101 -249.5t-95 -234.5q-3 -10 8 -10z" />
    <glyph glyph-name="Epsilon" unicode="&#x395;" horiz-adv-x="627" 
d="M401 0h-377v30q66 3 85 14t19 47v463q0 37 -19 47t-75 14v30h358q99 0 131 6q4 -75 26 -171l-27 -8q-49 105 -92 129q-16 9 -62 9h-117q-19 0 -24.5 -8t-5.5 -33v-221h100q45 0 60 22t25 85h29q0 -4 -2 -51t-2 -73q0 -49 4 -129h-30q-14 73 -26 88q-15 21 -58 21h-100
v-204q0 -47 15.5 -59.5t69.5 -12.5h71q41 0 57 3t34 14q49 31 107 143l28 -10q-35 -86 -58 -189q-76 4 -144 4z" />
    <glyph glyph-name="Zeta" unicode="&#x396;" horiz-adv-x="630" 
d="M387 0h-347v22q44 52 213.5 300.5t190.5 287.5h-221q-43 0 -64 -15q-40 -25 -96 -140l-29 10q35 114 45 190q54 -10 129 -10h251q59 0 103 2v-21q-18 -27 -399 -591h213q53 0 84 19q52 33 114 141l28 -12q-42 -94 -65 -189q-75 6 -150 6z" />
    <glyph glyph-name="Eta" unicode="&#x397;" horiz-adv-x="759" 
d="M315 0h-281v30q57 4 75.5 15t18.5 46v463q0 36 -19 47t-75 14v30h281v-30q-56 -3 -75 -14.5t-19 -46.5v-199h317v199q0 35 -20 46.5t-74 14.5v30h281v-30q-22 -1 -33 -2.5t-25 -5t-20.5 -9.5t-11 -17t-4.5 -27v-463q0 -32 18 -45t76 -16v-30h-281v30q55 3 74.5 13.5
t19.5 47.5v227h-317v-227q0 -36 20 -46.5t74 -14.5v-30z" />
    <glyph glyph-name="Theta" unicode="&#x398;" horiz-adv-x="745" 
d="M491 224h-27q-8 46 -19 58t-36 12h-72q-26 0 -36.5 -13t-17.5 -57h-27v209h28q8 -45 19.5 -56t42.5 -11h58q31 0 42.5 10.5t19.5 56.5h25v-209zM372 -15q-135 0 -225.5 95t-90.5 242q0 159 91 249t229 90q134 0 224 -92t90 -245q0 -150 -90 -244.5t-228 -94.5zM388 21
q91 0 143 76t52 216q0 157 -61.5 234.5t-158.5 77.5q-93 0 -147 -73.5t-54 -209.5q0 -152 60.5 -236.5t165.5 -84.5z" />
    <glyph glyph-name="Iota" unicode="&#x399;" horiz-adv-x="349" 
d="M315 0h-281v30q56 3 75 13.5t19 47.5v463q0 16 -5 26.5t-9 16t-20 10t-21 5t-30 2.5q-6 1 -9 1v30h281v-30q-52 -3 -73 -14t-21 -47v-463q0 -35 19 -46t75 -15v-30z" />
    <glyph glyph-name="Kappa" unicode="&#x39a;" horiz-adv-x="693" 
d="M315 0h-281v30q56 4 75 14.5t19 46.5v463q0 35 -19.5 46t-74.5 15v30h281v-30q-56 -3 -75 -15t-19 -46v-236q52 40 116 104t114 125q25 30 25 45q0 9 -18 14t-58 9v30h249v-30q-55 -4 -85 -20t-72 -60q-30 -32 -85 -87t-74 -75q-4 -4 1 -10q11 -17 107 -127.5t136 -152.5
q47 -47 126 -53v-30h-280v30q41 6 44 7q20 5 7 26q-15 20 -99 119.5t-107 124.5q-5 5 -10 0l-37 -29v-187q0 -36 19 -46.5t75 -14.5v-30z" />
    <glyph glyph-name="Lambda" unicode="&#x39b;" horiz-adv-x="675" 
d="M231 0h-237v30q37 4 50 8q23 5 36 17t26 44q110 288 194 502q7 19 5 44h72q2 -8 8 -24q35 -94 115 -310.5t83 -225.5q10 -26 24 -36t41 -15q19 -4 33 -4v-30h-266v30q36 4 51 8q16 4 20 12t-2 24q-11 35 -168 476q-12 -34 -50.5 -136.5t-69 -187t-46.5 -135.5
q-7 -27 -0.5 -38t28.5 -15q35 -6 53 -8v-30z" />
    <glyph glyph-name="Mu" unicode="&#x39c;" horiz-adv-x="892" 
d="M275 0h-250v30q56 5 72.5 21t18.5 68q6 146 12 448q1 25 -15.5 32.5t-84.5 15.5v30h184q198 -414 240 -506q15 33 111.5 243t120.5 263h175v-30q-53 -2 -73 -13.5t-20 -47.5v-463q0 -10 2 -18t4 -14t8 -10t10 -6.5t14 -4.5l15 -3t19.5 -2.5t20.5 -2.5v-30h-281v30
q28 3 37 4t25 5t20.5 10t9 17t4.5 27q0 36 2 232t1 223q-221 -494 -244 -548h-27q-22 59 -243 551q-4 -170 -1 -435q1 -52 23.5 -66t89.5 -20v-30z" />
    <glyph glyph-name="Nu" unicode="&#x39d;" horiz-adv-x="741" 
d="M281 0h-252v30q61 5 80.5 25t19.5 84v399q0 25 -18 43q-17 17 -33.5 23t-58.5 11v30h163l398 -513v367q0 71 -18.5 90t-94.5 26v30h251v-30q-62 -4 -80 -26.5t-18 -88.5v-401q0 -76 3 -102h-65q-25 37 -63 87l-325 433v-378q0 -65 20.5 -84t90.5 -25v-30z" />
    <glyph glyph-name="Xi" unicode="&#x39e;" horiz-adv-x="655" 
d="M461 574h-280q-25 0 -43.5 -17t-44.5 -70l-26 7q27 104 34 157q38 -6 125 -6h212q98 0 126 5q-2 -52 11 -165l-27 -4q-21 58 -40 75.5t-47 17.5zM487 222h-26q-11 46 -20 59t-33 13h-168q-21 0 -31 -13t-21 -60h-30v215h26q12 -45 21 -57.5t29 -12.5h175q22 0 32 12
t21 59h25v-215zM557 0h-487q0 39 -17 168l27 4q21 -60 39 -80t45 -20h316q28 0 49 20t52 77l26 -8q-41 -122 -50 -161z" />
    <glyph glyph-name="Omicron" unicode="&#x39f;" horiz-adv-x="740" 
d="M373 -16q-123 0 -214 81q-103 97 -103 257q0 89 32.5 159.5t88.5 114.5q84 65 189 65q138 0 228 -90t90 -243q0 -130 -71 -225q-42 -56 -103.5 -87.5t-136.5 -31.5zM385 20q60 0 102 33q90 71 90 261q0 157 -76 248q-54 63 -137 63q-65 0 -106 -33q-95 -70 -95 -247
q0 -149 65 -240q61 -85 157 -85z" />
    <glyph glyph-name="Pi" unicode="&#x3a0;" horiz-adv-x="751" 
d="M315 0h-281v30q22 1 56 7q38 7 38 54v463q0 47 -41 54q-29 6 -53 7v30h683v-30q-25 -1 -52 -6q-42 -8 -42 -55v-463q0 -46 40 -54q29 -6 54 -7v-30h-281v30q22 1 56 7q38 7 38 55v495q0 23 -24 23h-262q-14 0 -18.5 -4t-4.5 -18v-496q0 -47 41 -55q27 -6 53 -7v-30z" />
    <glyph glyph-name="Rho" unicode="&#x3a1;" horiz-adv-x="611" 
d="M221 578v-278q0 -8 7 -12q11 -5 49 -5q178 0 178 173q0 157 -161 157q-38 0 -56 -6q-17 -6 -17 -29zM324 0h-290v30q56 4 75 14.5t19 46.5v463q0 16 -4.5 26.5t-9 16.5t-20.5 9.5t-24.5 5t-35.5 3.5v30h264q111 0 166 -28q93 -47 93 -153q0 -95 -66 -151
q-72 -63 -214 -63q-27 0 -56 3v-162q0 -34 19 -45t84 -16v-30z" />
    <glyph glyph-name="Sigma" unicode="&#x3a3;" horiz-adv-x="655" 
d="M425 0h-379v34q53 45 160.5 147t134.5 132q-22 24 -138 142.5t-161 160.5v29h398q62 0 116 7q2 -66 19 -173l-26 -5q-31 82 -56.5 109t-65.5 27h-253q15 -17 252 -254v-15q-247 -238 -276 -268h321q30 0 56.5 23.5t65.5 92.5l27 -12q-51 -115 -65 -181q-49 4 -130 4z" />
    <glyph glyph-name="Tau" unicode="&#x3a4;" horiz-adv-x="681" 
d="M491 0h-301v30q64 4 84 14t20 47v519h-96q-32 0 -53 -15q-43 -33 -82 -128l-27 7q23 121 24 181q50 -10 116 -10h330q66 0 116 10q1 -60 24 -181l-27 -7q-40 95 -83 128q-20 15 -52 15h-97v-519q0 -36 19 -45.5t85 -15.5v-30z" />
    <glyph glyph-name="Upsilon" unicode="&#x3a5;" horiz-adv-x="731" 
d="M503 0h-301v30q36 2 66 7q38 7 38 54v187q0 133 -15 181q-21 71 -66 110t-99 39q-60 0 -99 -19v27q48 39 134 39q46 0 83.5 -18.5t60.5 -47.5t37 -57.5t20 -56.5q21 54 52 92t64 56t58.5 25t47.5 7q83 0 119 -35v-29q-41 19 -98 19q-76 0 -125 -52.5t-69 -140.5
q-12 -50 -12 -137v-189q0 -46 40 -54q26 -5 64 -7v-30z" />
    <glyph glyph-name="Phi" unicode="&#x3a6;" horiz-adv-x="753" 
d="M421 537v-426q177 16 177 209q0 108 -44.5 160t-132.5 57zM332 111v429q-180 -15 -177 -209q5 -211 177 -220zM506 -15h-262v30q27 0 57 5q31 5 31 34v23q-131 5 -204 69.5t-73 176.5t75 177.5t202 70.5v21q0 16 -7 23t-25 10q-16 3 -49 5v31h254v-31q-34 -3 -56 -7
q-28 -6 -28 -33v-20q128 -6 202.5 -65.5t74.5 -177.5q0 -116 -75.5 -178t-200.5 -72v-21q0 -17 6 -24.5t26 -11.5q9 -1 52 -6v-29z" />
    <glyph glyph-name="Chi" unicode="&#x3a7;" horiz-adv-x="642" 
d="M0 0v30q47 4 73 14.5t48 40.5q98 140 156 231q-119 204 -143 240t-42.5 46t-65.5 13v30h265v-30q-42 -5 -48 -6q-28 -5 -16 -27q64 -116 113 -194q78 108 117 180q19 33 -13 39q-21 5 -56 8v30h233v-30q-51 -5 -76.5 -18t-51.5 -50q-122 -175 -134 -192
q144 -239 163 -270t40 -40.5t69 -14.5v-30h-281v30q40 3 58 8q28 7 11 35q-81 144 -120 209q-90 -135 -126 -200q-10 -24 -5.5 -32.5t24.5 -11.5q47 -7 59 -8v-30h-251z" />
    </font>
</defs>
</svg>
