<?xml version="1.0" standalone="no"?>
<!DOCTYPE svg PUBLIC "-//W3C//DTD SVG 1.1//EN" "http://www.w3.org/Graphics/SVG/1.1/DTD/svg11.dtd" >
<svg>
<metadata>
Created by FontForge 20110222 at Mon Jul 28 09:42:55 2014
 By Orthosie Webhosting
(c) 2011 Adobe Systems Incorporated. All rights reserved.
</metadata>
<defs>
<font id="TrajanSansProSemibold" horiz-adv-x="815" >
  <font-face 
    font-family="TrajanSansProSemibold"
    font-weight="600"
    font-stretch="normal"
    units-per-em="1000"
    panose-1="2 14 6 2 5 5 3 2 3 1"
    ascent="750"
    descent="-250"
    x-height="641"
    cap-height="754"
    bbox="-238 -349 1762 1103"
    underline-thickness="50"
    underline-position="-50"
    unicode-range="U+0020-FB02"
  />
<missing-glyph horiz-adv-x="520" 
d="M0 0v710h520v-710h-520zM83 51h354l-177 258zM291 355l176 -259v518zM52 614v-518l177 259zM83 659l177 -258l177 258h-354z" />
    <glyph glyph-name=".notdef" horiz-adv-x="520" 
d="M0 0v710h520v-710h-520zM83 51h354l-177 258zM291 355l176 -259v518zM52 614v-518l177 259zM83 659l177 -258l177 258h-354z" />
    <glyph glyph-name=".null" horiz-adv-x="0" 
 />
    <glyph glyph-name="nonmarkingreturn" horiz-adv-x="333" 
 />
    <glyph glyph-name="space" unicode=" " horiz-adv-x="264" 
 />
    <glyph glyph-name="exclam" unicode="!" horiz-adv-x="398" 
d="M261 242l-64 -13q-27 424 -43 517q77 2 151 18q-7 -57 -24 -274t-20 -248zM228 -17q-34 0 -52 21.5t-18 48.5q0 26 18.5 48.5t52.5 22.5q30 0 49.5 -18.5t19.5 -48.5q0 -31 -20 -52.5t-50 -21.5z" />
    <glyph glyph-name="quotedbl" unicode="&#x22;" horiz-adv-x="417" 
d="M44 787q59 2 123 14q-3 -24 -30 -281l-61 -9q-25 244 -32 276zM249 787q63 2 123 14q-2 -18 -30 -281l-62 -9q-20 208 -31 276z" />
    <glyph glyph-name="numbersign" unicode="#" horiz-adv-x="653" 
d="M593 463h-116l-23 -152h111v-80h-123l-34 -231h-73l34 231h-134l-34 -231h-73l34 231h-113v80h125l22 152h-117v81h129l31 210h73l-31 -210h134l31 210h74l-31 -210h104v-81zM381 311l22 152h-134l-22 -152h134z" />
    <glyph glyph-name="dollar" unicode="$" horiz-adv-x="584" 
d="M331 438l19 -10q89 -49 126 -101.5t37 -119.5q0 -117 -95 -179q-54 -35 -143 -39q-2 -16 -5.5 -47t-4.5 -46q-43 0 -69 -7q10 66 14 101q-104 11 -159 48q11 61 9 132l3 1q20 -28 65.5 -55.5t94.5 -38.5q14 108 35 254l-28 16q-84 47 -115 98t-31 114q0 84 61.5 141.5
t167.5 61.5l9 78q42 0 64 5q-2 -14 -6 -42.5t-6 -42.5q30 -3 65 -10q14 -2 29.5 -4.5t24.5 -4t12 -1.5q-10 -37 -10 -129l-2 -1q-13 19 -48 39.5t-83 27.5q-5 -39 -15.5 -119.5t-15.5 -119.5zM200 583q0 -34 15.5 -60t61.5 -55q16 126 26 213q-49 -4 -76 -30.5t-27 -67.5z
M285 74q53 4 80 33t27 75q0 34 -17 61t-61 56q-19 -140 -29 -225z" />
    <glyph glyph-name="percent" unicode="%" horiz-adv-x="953" 
d="M705 0q-86 0 -131.5 57t-45.5 126q0 79 46.5 137t137.5 58q84 0 130.5 -56t46.5 -126q0 -79 -47.5 -137.5t-136.5 -58.5zM709 61q49 0 72 34.5t23 88.5q0 60 -25.5 96.5t-71.5 36.5q-48 0 -71.5 -34.5t-23.5 -88.5t25.5 -93.5t71.5 -39.5zM665 740l-325 -750
q-50 0 -80 -7q234 520 320 722q-13 -1 -211 -13q55 -45 55 -132q0 -76 -47.5 -132.5t-135.5 -56.5q-85 0 -131 56.5t-46 127.5q0 81 49 138t140 57q103 0 238 8.5t178 14.5q7 2 7 -4q0 -1 -11 -29zM245 432q94 0 94 123q0 60 -24.5 97t-71.5 37q-48 0 -71.5 -34.5
t-23.5 -88.5q0 -55 25 -94.5t72 -39.5z" />
    <glyph glyph-name="ampersand" unicode="&#x26;" horiz-adv-x="901" 
d="M352 -17q-70 0 -125 22.5t-86.5 58.5t-47.5 77.5t-16 83.5q-1 71 39.5 126t111.5 103q-41 65 -41 129q0 76 57 130.5t166 54.5q90 0 154 -33q-14 -49 -14 -110q-58 60 -140 60q-47 0 -76.5 -26.5t-29.5 -72.5q0 -41 27.5 -84t107.5 -129q100 -107 155 -153
q31 50 55 120.5t30 116.5q50 -18 118 -23q-14 -62 -52 -142t-81 -131q144 -125 210 -147q-24 -26 -118 -26q-73 -1 -175 82q-107 -87 -229 -87zM380 82q81 0 134 48q-143 132 -243 261q-72 -58 -72 -141q1 -73 51 -120.5t130 -47.5z" />
    <glyph glyph-name="quotesingle" unicode="'" horiz-adv-x="212" 
d="M44 787q59 2 123 14q-3 -24 -30 -281l-61 -9q-25 244 -32 276z" />
    <glyph glyph-name="parenleft" unicode="(" horiz-adv-x="417" 
d="M343 -90l-48 -39q-34 24 -69 62t-71.5 94.5t-59.5 135t-23 163.5t24 165t62 137.5t72 95.5t66 62l46 -35q-159 -181 -159 -413q0 -258 160 -428z" />
    <glyph glyph-name="parenright" unicode=")" horiz-adv-x="417" 
d="M74 747l48 39q34 -24 69 -62t71.5 -94.5t59.5 -135t23 -163.5t-24.5 -165t-62.5 -137.5t-72 -95.5t-66 -62l-45 35q69 78 113.5 183.5t44.5 229.5q0 258 -159 428z" />
    <glyph glyph-name="asterisk" unicode="*" horiz-adv-x="341" 
d="M154 631q7 -6 7 5q-11 125 -12 131q38 -9 83 -11q-8 -17 -21.5 -57.5t-23.5 -65.5q-4 -7 1 -7q1 0 3 1q89 37 117 56q4 -34 18 -84q-57 5 -129 1q-8 0 -4 -5q42 -54 91 -94q-40 -20 -72 -45q-20 69 -44 124q-4 10 -10 1q-57 -76 -74 -107q-30 42 -56 63q36 17 115 66
q4 3 -1 5q-83 26 -127 34q22 34 40 75q50 -52 99 -86z" />
    <glyph glyph-name="plus" unicode="+" horiz-adv-x="675" 
d="M582 289h-207v-219h-73v219h-209v72h208v212h73v-212h208v-72z" />
    <glyph glyph-name="comma" unicode="," horiz-adv-x="249" 
d="M82 138q21 1 62.5 10t57.5 15q0 -22 -3 -55q-6 -57 -35 -124.5t-78 -123.5q-39 -10 -82 -12q94 158 78 290z" />
    <glyph glyph-name="hyphen" unicode="-" horiz-adv-x="380" 
d="M66 369h274q-7 -24 -21 -78q-204 -10 -279 -21q16 43 26 99z" />
    <glyph glyph-name="period" unicode="." horiz-adv-x="238" 
d="M118 -14q-35 0 -53.5 22.5t-18.5 50.5q0 29 18.5 52t54.5 23q31 0 52 -21t21 -52q0 -32 -21 -53.5t-53 -21.5z" />
    <glyph glyph-name="slash" unicode="/" horiz-adv-x="530" 
d="M64 -20l338 790q37 -15 64 -23l-338 -791q-24 11 -64 24z" />
    <glyph glyph-name="zero" unicode="0" horiz-adv-x="690" 
d="M351 767q70 0 124 -34t85.5 -89.5t47.5 -119t16 -130.5q0 -242 -119 -351q-67 -60 -165 -60q-73 0 -128.5 34t-86 91t-45 121.5t-14.5 134.5q0 246 123 348q65 55 162 55zM492 367q0 92 -15 162t-50 115.5t-88 45.5q-66 0 -104 -79.5t-38 -218.5q0 -92 15 -164.5
t50.5 -119.5t88.5 -47q70 0 105.5 84.5t35.5 221.5z" />
    <glyph glyph-name="one" unicode="1" horiz-adv-x="420" 
d="M57 659q119 35 226 97q17 11 23 11q4 0 4 -12q-5 -70 -5 -269v-199q0 -207 7 -289q-19 2 -60 2q-48 0 -82 -4q9 79 9 291v175q0 159 -5 159q-3 0 -26.5 -11t-54.5 -25.5t-45 -19.5q9 36 9 94z" />
    <glyph glyph-name="two" unicode="2" horiz-adv-x="610" 
d="M572 115q-7 -18 -30 -116q-10 -3 -72 -3q-56 0 -170.5 2t-184.5 2q-60 0 -78 -3q0 10 21 55q6 15 11 18q67 59 107.5 96.5t87.5 87.5t71.5 88.5t41 85t15.5 91.5q-1 80 -43 119t-105 39q-54 0 -97 -21t-67 -51q-4 73 -11 111q2 1 16.5 7.5t19.5 8.5t20.5 8t25 8.5t26.5 7
t31 6.5t33.5 3.5t38.5 1.5q121 0 182.5 -65t61.5 -165q0 -37 -10 -73.5t-21.5 -65t-40 -66.5t-45.5 -59t-58.5 -61.5t-58.5 -56t-66 -59.5q-6 -4 0 -4h71q107 0 157 4q76 4 120 19z" />
    <glyph glyph-name="three" unicode="3" horiz-adv-x="613" 
d="M43 19q11 91 9 130q25 -32 76 -56.5t114 -24.5q71 0 118 37.5t47 109.5q0 42 -20 72t-53 45.5t-70.5 21.5t-79.5 4q13 49 13 82q82 2 129 34t47 96q0 47 -34.5 79.5t-102.5 32.5q-96 0 -166 -74q1 19 -1 60.5t-4 53.5q102 45 199 45q66 0 115 -16t76 -43t39.5 -56
t12.5 -60q0 -65 -39.5 -108.5t-96.5 -64.5q-3 -1 0 -3q73 -20 124.5 -66t51.5 -127q0 -103 -83.5 -171.5t-229.5 -68.5q-64 0 -117 11.5t-74 24.5z" />
    <glyph glyph-name="four" unicode="4" horiz-adv-x="643" 
d="M616 293q-14 -47 -18 -97q-46 6 -114 6q0 -98 9 -204q-26 2 -53 2q-47 0 -79 -4q10 88 10 206q-96 0 -201 0.5t-110 0.5q-35 0 -35 8q0 6 22 32q17 21 177.5 224t211.5 263q31 37 42 37q7 0 7 -25q0 -10 -0.5 -59.5t-0.5 -87.5v-309q96 -2 132 7zM371 286v258
q-19 -23 -94.5 -126.5t-92.5 -130.5q20 -1 187 -1z" />
    <glyph glyph-name="five" unicode="5" horiz-adv-x="607" 
d="M41 20q14 62 12 128q30 -32 80 -55.5t116 -23.5q70 0 114 39.5t44 111.5q0 44 -23.5 78.5t-69.5 60.5t-100.5 44t-129.5 35q58 235 72 312h244q91 0 117 5q-21 -47 -31 -118q-32 16 -134 16h-121l-32 -139q86 -18 156 -47q89 -34 137.5 -88.5t48.5 -141.5q0 -45 -16 -87
t-49 -80.5t-94.5 -62t-142.5 -24.5q-120 0 -198 37z" />
    <glyph glyph-name="six" unicode="6" horiz-adv-x="671" 
d="M336 385q-65 0 -112 -43q-18 -17 -22 -41q-3 -18 -3 -37q0 -89 39.5 -146t110.5 -57q55 0 92 43t37 116q0 83 -40 124t-102 41zM535 776q11 -40 29 -73q-130 -35 -224 -109t-123 -185q76 64 173 64q100 0 159 -68.5t59 -155.5q0 -119 -77.5 -192.5t-191.5 -73.5
q-121 0 -197 81.5t-76 215.5q0 192 130.5 324.5t338.5 171.5z" />
    <glyph glyph-name="seven" unicode="7" horiz-adv-x="575" 
d="M274 -1q-86 -3 -147 -14q10 65 56 188q82 221 222 480h-184q-149 0 -194 -21q16 43 26 124q28 -7 146 -7h335q27 0 27 -4q0 -3 -9 -20q-68 -122 -136 -275.5t-108 -288.5q-30 -96 -34 -162z" />
    <glyph glyph-name="eight" unicode="8" horiz-adv-x="656" 
d="M422 415q38 -20 63 -36.5t52 -42t40 -58.5t13 -74q0 -94 -74.5 -157.5t-193.5 -63.5q-114 0 -185 55.5t-71 146.5q0 120 164 199q-64 37 -97.5 80t-33.5 105q0 79 61 138.5t182 59.5q94 0 155.5 -50t61.5 -122q0 -66 -37 -106.5t-100 -73.5zM295 349q-56 -36 -82.5 -70.5
t-26.5 -82.5q0 -58 42 -97.5t105 -39.5q58 0 91.5 33t33.5 86q0 54 -36.5 90.5t-126.5 80.5zM351 451q89 55 89 132q0 46 -29.5 78t-84.5 32q-47 0 -76 -29.5t-29 -72.5q0 -47 30.5 -78.5t99.5 -61.5z" />
    <glyph glyph-name="nine" unicode="9" horiz-adv-x="661" 
d="M318 690q-58 0 -93.5 -43t-35.5 -107q0 -82 46 -121t101 -39q79 0 118 47q5 7 7 17q3 19 3 40q0 104 -40 155t-106 51zM139 -23q9 43 12 91q105 31 184.5 101.5t108.5 173.5q-61 -49 -154 -49q-99 0 -163 64t-64 160q0 105 73 177t197 72q128 0 195 -84t67 -209
q0 -89 -30 -168.5t-77.5 -135t-108.5 -98t-122 -65.5t-118 -30z" />
    <glyph glyph-name="colon" unicode=":" horiz-adv-x="310" 
d="M155 -14q-35 0 -54 22.5t-19 51.5q0 28 19 51t55 23q31 0 51.5 -20t20.5 -52q0 -33 -20.5 -54.5t-52.5 -21.5zM155 352q-35 0 -54 22.5t-19 51.5q0 27 19 50.5t55 23.5q31 0 51.5 -20.5t20.5 -52.5t-20.5 -53.5t-52.5 -21.5z" />
    <glyph glyph-name="semicolon" unicode=";" horiz-adv-x="322" 
d="M167 352q-35 0 -54 22.5t-19 51.5q0 27 19 50.5t55 23.5q31 0 51.5 -19.5t20.5 -51.5q0 -33 -20.5 -55t-52.5 -22zM109 138q21 1 62.5 10t57.5 15q1 -13 -3 -55q-6 -56 -35.5 -123.5t-77.5 -124.5q-39 -10 -82 -12q94 160 78 290z" />
    <glyph glyph-name="less" unicode="&#x3c;" horiz-adv-x="618" 
d="M525 65l-432 229v67l432 227v-79l-355 -182l355 -184v-78z" />
    <glyph glyph-name="equal" unicode="=" horiz-adv-x="675" 
d="M582 178h-489v74h489v-74zM582 394h-489v73h489v-73z" />
    <glyph glyph-name="greater" unicode="&#x3e;" horiz-adv-x="618" 
d="M93 588l432 -229v-67l-432 -227v79l355 182l-355 184v78z" />
    <glyph glyph-name="question" unicode="?" horiz-adv-x="576" 
d="M345 214l-76 -14q-51 43 -51 107q0 33 20 61.5t69 80.5q47 48 64 78t17 63q0 38 -25.5 64.5t-78.5 26.5q-96 0 -155 -72q4 53 -10 122q3 1 23.5 8t32.5 10t33.5 8t45 7.5t49.5 2.5q113 0 163.5 -53.5t50.5 -120.5q0 -25 -7 -49t-13 -39t-27 -41t-29 -34.5t-41 -41.5
l-41 -41q-17 -16 -26 -30.5t-10 -21.5t-1 -19q0 -30 23 -62zM300 -16q-34 0 -52 21.5t-18 48.5q0 26 18.5 48.5t52.5 22.5q30 0 49.5 -19.5t19.5 -49.5q0 -31 -19.5 -51.5t-50.5 -20.5z" />
    <glyph glyph-name="at" unicode="@" horiz-adv-x="934" 
d="M735 196q-66 -46 -141 -46q-52 0 -69 35t-6 115q-38 -64 -100.5 -107t-104.5 -43q-29 0 -45 25.5t-16 68.5q0 73 31 140.5t92 115.5q32 32 82 53t93 21q37 0 67 -5q12 -1 45 1q-21 -55 -41 -137t-21 -145q0 -34 10 -52.5t38 -18.5q59 0 106.5 62t47.5 166
q0 117 -78.5 195.5t-216.5 78.5q-159 0 -263.5 -116.5t-104.5 -290.5q0 -147 86.5 -232t216.5 -85q175 0 279 89l1 -53q-45 -42 -124.5 -66.5t-171.5 -24.5q-152 0 -253.5 98.5t-101.5 268.5q0 197 131 328.5t318 131.5q161 0 252 -88t91 -223q0 -163 -129 -260zM512 518
q-87 0 -132 -100q-31 -67 -31 -133q0 -53 25 -53q30 0 81 50t79 124q6 16 16.5 53t14.5 50q-15 9 -53 9z" />
    <glyph glyph-name="A" unicode="A" horiz-adv-x="722" 
d="M464 220h-248q-4 0 -5 -3q-58 -157 -74 -219q-26 2 -57 2q-52 0 -74 -4q43 84 118 257l200 466q22 48 29 48q9 0 30 -48q148 -330 201 -452q96 -217 132 -269q-52 2 -65 2q-61 0 -93 -4q-31 85 -90 221q-2 3 -4 3zM243 302h190q4 0 3 4l-100 248l-95 -248q-1 -4 2 -4z
" />
    <glyph glyph-name="B" unicode="B" horiz-adv-x="700" 
d="M260 669v-221q0 -5 4 -6q29 -3 100 -3q33 0 46 10q50 36 50 103q0 58 -36.5 92.5t-104.5 34.5q-46 0 -56 -4q-3 -1 -3 -6zM510 209q0 69 -53 113q-41 38 -120 41q-57 2 -74 0q-3 -1 -3 -4v-71q0 -190 4 -196q20 -22 102 -22q60 0 102 36t42 103zM136 287v176
q0 232 -12 289q30 -2 59 -2q23 0 77 1.5t87 1.5q66 0 113 -16t71 -43.5t34 -55.5t10 -59q0 -54 -28.5 -95t-69.5 -62q76 -23 121 -73.5t45 -125.5q0 -97 -73.5 -163.5t-207.5 -66.5q-15 0 -155 7q-26 0 -80 -3q9 77 9 290z" />
    <glyph glyph-name="C" unicode="C" horiz-adv-x="791" 
d="M516 -17q-207 0 -331 108q-124 111 -124 295q0 168 114 274q118 107 319 107q47 0 92.5 -5t70.5 -10.5t57.5 -14t37.5 -9.5q-15 -55 -17 -127q-36 36 -102 60t-150 24q-121 0 -196 -67q-84 -76 -84 -219q0 -49 11.5 -94.5t37.5 -87.5t63 -73t93 -49.5t123 -18.5
q143 0 218 54q-16 -56 -22 -114q-32 -13 -91.5 -23t-119.5 -10z" />
    <glyph glyph-name="D" unicode="D" horiz-adv-x="890" 
d="M137 283v181q0 228 -12 288q22 -2 65 -2q11 0 65.5 1.5t96.5 2.5q128 -1 222 -26t160 -92q95 -97 95 -253q0 -168 -108 -278q-117 -117 -323 -117q-60 0 -117 5q-115 9 -152 6q8 117 8 284zM263 472v-143q0 -139 2 -187q2 -47 7 -52q11 -9 49.5 -16.5t87.5 -7.5
q128 0 200 67q84 78 84 224q0 129 -63 212q-87 111 -278 111q-55 0 -83 -8q-4 -3 -4 -7q-2 -20 -2 -193z" />
    <glyph glyph-name="E" unicode="E" horiz-adv-x="601" 
d="M138 287v176q0 240 -13 289q17 -2 79 -2h234q73 0 92 6q-10 -50 -10 -112q-23 14 -93 20q-66 4 -160 4q-4 0 -4 -3v-222q0 -5 4 -5q121 0 154 1q71 2 91 9q-11 -59 -9 -113q-27 14 -77 18q-66 4 -159 4q-4 0 -4 -4v-55q0 -202 7 -208q5 -5 23 -7q36 -4 96 -4
q122 0 171 23q-15 -49 -24 -105q-5 -4 -56 -4q-78 0 -164 3.5t-103 3.5q-64 0 -85 -3q10 123 10 290z" />
    <glyph glyph-name="F" unicode="F" horiz-adv-x="576" 
d="M137 287v176q0 226 -12 290q29 -3 83 -3h241q58 -2 91 6q-6 -34 -9 -107q-24 10 -89 15q-66 4 -174 4q-4 0 -4 -4q0 -38 -0.5 -117.5t-0.5 -116.5q0 -6 4 -6q91 0 157 2q63 1 91 8q-7 -26 -10 -111q-22 12 -79 16q-64 4 -160 4q-3 0 -3 -6v-50q0 -234 10 -289
q-18 2 -65 2q-55 0 -81 -4q10 68 10 291z" />
    <glyph glyph-name="G" unicode="G" horiz-adv-x="863" 
d="M764 188v-74q0 -77 1 -89q-46 -18 -119.5 -30t-139.5 -12q-237 0 -356 142q-89 104 -89 256q0 114 47.5 192t118.5 122q109 72 288 72q55 0 110 -8.5t97 -18.5t46 -11q-14 -62 -14 -136q-29 33 -99.5 62t-168.5 29q-125 0 -202 -72q-81 -78 -81 -209t69 -211
q94 -123 254 -123q77 0 109 19q3 3 3 28v99q0 101 -14 157q26 -3 68 -3q19 0 79 4q-7 -56 -7 -185z" />
    <glyph glyph-name="H" unicode="H" horiz-adv-x="908" 
d="M138 287v176q0 222 -13 289q24 -2 62 -2q54 0 84 4q-8 -96 -8 -276v-16q0 -4 4 -4h378q4 0 4 4v16q0 198 -10 274q28 -2 63 -2q55 0 82 4q-9 -86 -9 -291v-176q0 -206 9 -289q-24 2 -63 2q-54 0 -82 -4q10 72 10 291v74q0 4 -4 4h-379q-3 0 -3 -4v-74q0 -197 10 -289
q-22 2 -57 2q-58 0 -88 -4q10 88 10 291z" />
    <glyph glyph-name="I" unicode="I" horiz-adv-x="397" 
d="M136 287v176q0 245 -11 289q11 -2 60 -2q66 0 86 4q-9 -86 -9 -291v-176q0 -242 11 -289q-22 2 -62 2q-58 0 -84 -4q9 72 9 291z" />
    <glyph glyph-name="J" unicode="J" horiz-adv-x="405" 
d="M278 463v-257q0 -121 -5.5 -179.5t-23.5 -102.5q-53 -136 -228 -141q-2 23 -13 63q72 15 103 52q25 33 33.5 93t8.5 212v260q0 229 -14 290q20 -3 58 -3q68 0 91 5q-10 -97 -10 -292z" />
    <glyph glyph-name="K" unicode="K" horiz-adv-x="757" 
d="M521 85q-89 97 -255 304q-2 5 1 10q104 96 212 230q31 35 60 73.5t34 50.5q18 -3 44 -3q76 0 116 4q-66 -52 -137 -123q-173 -177 -207 -218q80 -104 254 -285q107 -108 149 -125q-14 -9 -75 -9q-67 0 -106.5 17t-89.5 74zM136 287v176q0 246 -11 289q22 -2 60 -2
q52 0 86 4q-9 -88 -9 -291v-176q0 -242 11 -289q-22 2 -55 2q-61 0 -91 -4q9 70 9 291z" />
    <glyph glyph-name="L" unicode="L" horiz-adv-x="584" 
d="M139 287v176q0 230 -13 289q22 -2 63 -2q69 0 85 4q-10 -97 -10 -286v-170q0 -202 7 -208q5 -6 26 -8q31 -3 95 -3q136 0 180 23q-5 -11 -11 -31.5t-11.5 -44.5t-7.5 -29q-5 -3 -68 -3q-83 0 -167 3t-109 3q-41 0 -69 -2q10 90 10 289z" />
    <glyph glyph-name="M" unicode="M" horiz-adv-x="1044" 
d="M92 -4q19 79 81 601q10 94 19 154q2 16 8 16q4 0 14 -17q12 -17 46.5 -78t47.5 -82l217 -385l181 326q73 117 120 207q18 29 25 29t10 -30q3 -27 9 -81.5t8 -74.5q55 -513 74 -583q-20 2 -62 2q-63 0 -86 -4q0 33 -5.5 117t-14 199.5t-12.5 174.5q-18 -34 -117 -217.5
t-140 -269.5q-8 -18 -16 -1q-42 89 -129 255.5t-118 231.5q-3 -46 -12 -172.5t-14 -204.5t-5 -111q-15 2 -54 2q-47 0 -75 -4z" />
    <glyph glyph-name="N" unicode="N" horiz-adv-x="920" 
d="M249 -2q-19 2 -59 2q-52 0 -70 -4q7 61 11.5 306t4.5 409q0 56 9 56q7 0 34 -26q33 -32 240.5 -244t268.5 -264q-4 399 -14 519q20 -2 54 -2q56 0 72 4q-6 -49 -11 -211t-4 -337v-147q0 -79 -10 -79q-9 0 -101 87q-50 47 -213 219t-228 235q4 -432 16 -523z" />
    <glyph glyph-name="O" unicode="O" horiz-adv-x="915" 
d="M452 -17q-98 0 -175.5 35t-123 92t-69 123.5t-23.5 135.5q0 77 26 147t74.5 126.5t127 90.5t176.5 34q176 0 283 -107.5t107 -265.5q0 -178 -108.5 -294.5t-294.5 -116.5zM478 62q40 0 78 14.5t75 46.5t59.5 94t22.5 146q0 138 -74.5 232t-198.5 94q-106 0 -172 -77.5
t-65 -212.5q0 -147 74 -242t201 -95z" />
    <glyph glyph-name="P" unicode="P" horiz-adv-x="665" 
d="M136 287v176q0 229 -11 289q14 -2 53 -2q15 0 65 2t85 2q89 0 141 -17t90 -51q60 -54 60 -145q0 -108 -78 -171.5t-192 -61.5q-13 53 -19 68q165 10 165 149q0 84 -59 123q-41 36 -117 36q-38 0 -52 -4q-5 -2 -5 -22v-375q0 -202 9 -285q-30 2 -67 2q-52 0 -78 -4
q10 86 10 291z" />
    <glyph glyph-name="Q" unicode="Q" horiz-adv-x="915" 
d="M452 -17q-101 0 -179.5 36t-122.5 94t-66.5 123.5t-22.5 133.5q0 59 15.5 115t48.5 107.5t79.5 90t114 61.5t146.5 23q178 0 284 -107.5t106 -268.5q0 -212 -162 -333l132 -72q143 -79 242 -111t196 -32q119 0 202 33q-5 -16 -12 -64q-93 -61 -256 -61q-106 0 -211 38
t-259 129l-146 87q-57 -22 -129 -22zM478 62q31 0 61.5 8.5t62.5 30t56 54.5t39.5 86.5t15.5 121.5q0 138 -74.5 232t-198.5 94q-106 0 -172 -77.5t-65 -212.5q0 -147 74 -242t201 -95z" />
    <glyph glyph-name="R" unicode="R" horiz-adv-x="748" 
d="M138 287v176q0 241 -15 289q46 -2 62 -2q7 0 67 2t83 2q127 0 187 -36q42 -25 68.5 -68.5t26.5 -98.5q0 -126 -123 -207q134 -187 195 -255q67 -74 96 -88q-23 -8 -89 -8q-43 0 -70 12t-55 40q-25 25 -60.5 73t-72.5 104t-49 72q-4 7 -12 7q-77 0 -113 1q-4 0 -4 -6v-27
q0 -190 12 -271q-26 2 -61 2q-57 0 -85 -4q12 84 12 291zM260 668v-273q0 -8 4 -11q34 -9 109 -9q40 0 55 11q65 49 65 134q0 76 -46.5 117.5t-119.5 41.5q-48 0 -63 -4q-4 -1 -4 -7z" />
    <glyph glyph-name="S" unicode="S" horiz-adv-x="536" 
d="M47 26q12 51 10 133q27 -36 76.5 -63t105.5 -27q59 0 89.5 30.5t30.5 78.5q0 39 -20 69t-78 68l-50 33q-78 50 -107.5 101.5t-29.5 112.5q0 87 63 146t170 59q43 0 101 -9q51 -9 63 -9q-9 -33 -9 -130q-57 66 -157 66q-50 0 -80.5 -27.5t-30.5 -68.5q0 -38 17.5 -65.5
t72.5 -64.5l49 -32q89 -59 121.5 -108t32.5 -113q0 -47 -23.5 -97.5t-73.5 -82.5q-67 -43 -161 -43q-51 0 -103 12t-79 31z" />
    <glyph glyph-name="T" unicode="T" horiz-adv-x="680" 
d="M2 647q13 44 20 113q39 -10 161 -10h333q128 0 160 9q-11 -49 -13 -119q-27 18 -111 24q-48 4 -154 4v-381q0 -203 10 -289q-26 2 -57 2q-57 0 -88 -4q9 72 9 291v381q-90 0 -133 -2q-99 -5 -137 -19z" />
    <glyph glyph-name="U" unicode="U" horiz-adv-x="841" 
d="M106 752q26 -2 57 -2q68 0 92 4q-10 -70 -10 -291v-133q0 -88 17 -135t52 -77q49 -42 134 -42q81 0 125 45q37 35 48.5 85.5t11.5 149.5v107q0 207 -13 289q26 -2 54 -2q53 0 69 4q-12 -70 -12 -291v-108q0 -71 -5 -117.5t-28 -100.5t-66 -90q-74 -64 -205 -64
q-147 0 -221 67q-42 37 -64.5 95t-22.5 159v159q0 231 -13 289z" />
    <glyph glyph-name="V" unicode="V" horiz-adv-x="734" 
d="M2 753q32 -3 68 -3q68 0 101 5q10 -47 56 -163q24 -63 79 -194t76 -184q138 318 167 395q37 98 44 143q30 -2 49 -2q49 0 91 4q-51 -79 -100 -187q-226 -489 -239 -519q-32 -65 -40 -65q-9 0 -32 58q-36 87 -109 257.5t-109 257.5q-49 119 -102 197z" />
    <glyph glyph-name="W" unicode="W" horiz-adv-x="1092" 
d="M18 752q24 -2 77 -2q63 0 91 4q11 -58 50 -185q9 -35 48.5 -157.5t58.5 -176.5l202 481q17 36 22 36t25 -41l188 -473q6 19 48.5 137t60.5 173q45 141 55 204q24 -2 48 -2q52 0 82 4q-56 -125 -94 -228q-15 -39 -182 -488q-23 -55 -31 -55q-9 0 -29 47l-193 485
q-29 -64 -104.5 -245.5t-97.5 -230.5q-26 -56 -35 -56q-7 0 -30 63l-167 490q-56 158 -93 216z" />
    <glyph glyph-name="X" unicode="X" horiz-adv-x="672" 
d="M140 -2q-26 2 -57 2q-47 0 -83 -4q54 63 127 172l143 216l-133 214q-68 109 -116 154q52 -2 92 -2q45 0 77 4q19 -41 68.5 -127t90.5 -148q36 52 86 134q65 109 74 139q12 -2 50 -2q41 0 89 4q-41 -42 -107 -138l-145 -208q32 -55 122 -199q101 -160 154 -211
q-17 2 -78 2q-90 0 -105 -4q-8 26 -62 124q-25 43 -58 103t-49 87l-117 -193q-21 -35 -63 -119z" />
    <glyph glyph-name="Y" unicode="Y" horiz-adv-x="654" 
d="M262 -4q10 80 10 283q0 31 -14 54q-30 56 -83 145t-72 116q-84 126 -116 158q36 -2 70 -2q86 0 101 4q13 -35 57 -116q122 -213 136 -236q84 148 146 267q29 57 38 83q22 -2 45 -2q60 0 87 3q-25 -26 -100 -144q-35 -57 -89 -150.5t-70 -134.5q-10 -24 -10 -48
q0 -195 9 -278q-20 2 -62 2q-66 0 -83 -4z" />
    <glyph glyph-name="Z" unicode="Z" horiz-adv-x="667" 
d="M72 759q45 -9 234 -9h306q23 0 23 -4q0 -6 -11 -25q-282 -449 -410 -642h202q179 0 228 27q-5 -14 -16 -56t-14 -51q-5 -3 -61 -3q-79 0 -243 2t-271 2q-14 0 -14 4t21 36q160 241 407 632h-159q-179 0 -242 -33q14 42 20 120z" />
    <glyph glyph-name="bracketleft" unicode="[" horiz-adv-x="432" 
d="M218 539v-404q0 -169 6 -182q32 -11 134 -13l-9 -53q-167 0 -230 -3q4 84 4 229v433q0 182 -4 228q65 -3 235 -3l-9 -54q-101 -5 -122 -12q-5 -12 -5 -166z" />
    <glyph glyph-name="backslash" unicode="\" horiz-adv-x="530" 
d="M129 773q52 -130 158 -379q87 -200 181 -412q-36 -11 -67 -28q-134 319 -168 397q-108 256 -172 395q24 7 68 27z" />
    <glyph glyph-name="bracketright" unicode="]" horiz-adv-x="432" 
d="M214 119v405q0 169 -6 182q-33 10 -134 13l9 52q167 0 229 3q-3 -63 -3 -229v-433q0 -180 4 -228q-65 3 -235 3l9 54q100 5 122 12q5 15 5 166z" />
    <glyph glyph-name="asciicircum" unicode="^" horiz-adv-x="576" 
d="M250 750h76l186 -381h-84l-141 307l-139 -307h-84z" />
    <glyph glyph-name="underscore" unicode="_" horiz-adv-x="500" 
d="M0 -75h500v-50h-500v50z" />
    <glyph glyph-name="grave" unicode="`" horiz-adv-x="400" 
d="M95 900l179 -151l-32 -45q-43 26 -117.5 66t-91.5 47q46 51 62 83z" />
    <glyph glyph-name="a" unicode="a" horiz-adv-x="645" 
d="M409 175h-214q-4 0 -4 -3q-47 -120 -61 -174q-26 2 -54 2q-39 0 -72 -3q22 40 107 222l171 391q21 42 28 42q8 0 27 -42q43 -86 185 -384q99 -203 118 -228q-52 2 -62 2q-43 0 -91 -3q-33 86 -74 175q0 3 -4 3zM222 251h158q3 0 3 4l-85 197l-78 -197q-1 -4 2 -4z" />
    <glyph glyph-name="b" unicode="b" horiz-adv-x="633" 
d="M239 562v-179q0 -4 4 -5q17 -2 84 -2q30 0 43 8q41 28 41 83q0 47 -31 75.5t-89 28.5q-39 0 -49 -4q-3 -1 -3 -5zM453 178q0 55 -43 92q-36 32 -106 35q-47 2 -61 0q-4 -1 -4 -4v-56q0 -153 5 -160q16 -19 89 -19q49 0 84.5 29.5t35.5 82.5zM120 244v150q0 184 -11 245
q24 -2 55 -2q22 0 70.5 1.5t81.5 1.5q113 0 159.5 -44t46.5 -104q0 -46 -25 -80.5t-62 -51.5q146 -44 146 -170q0 -83 -66.5 -139.5t-185.5 -56.5q-39 0 -141 6q-25 0 -76 -3q8 76 8 247z" />
    <glyph glyph-name="c" unicode="c" horiz-adv-x="703" 
d="M459 -14q-184 0 -293 91q-110 93 -110 251q0 146 103 233q104 91 282 91q41 0 81 -4.5t62.5 -9t50 -11t33.5 -7.5q-15 -58 -16 -118q-76 74 -221 74q-104 0 -164 -53q-75 -65 -75 -183q0 -71 28.5 -130t94 -98.5t159.5 -39.5q124 0 193 47q-11 -34 -22 -106
q-71 -27 -186 -27z" />
    <glyph glyph-name="d" unicode="d" horiz-adv-x="792" 
d="M120 241v154q0 185 -11 244q20 -2 60 -2q11 0 62 1.5t88 2.5q114 -1 195 -23t139 -78q84 -84 84 -217q0 -140 -95 -233q-107 -100 -287 -100q-64 0 -104 4q-92 8 -138 5q7 84 7 242zM241 403v-120q0 -113 2 -153q0 -41 6 -47q10 -8 43 -14.5t73 -6.5q111 0 172 57
q70 67 70 184q0 106 -55 176q-74 93 -235 93q-49 0 -69 -6q-5 -2 -5 -6q-2 -36 -2 -157z" />
    <glyph glyph-name="e" unicode="e" horiz-adv-x="542" 
d="M121 244v150q0 200 -12 245q17 -2 75 -2h209q67 0 84 5q-8 -48 -8 -103q-25 13 -86 18q-60 4 -138 4q-3 0 -3 -3v-178q0 -5 3 -5q105 0 135 1q61 2 82 8q-9 -42 -9 -104q-22 13 -70 17q-44 3 -138 3q-3 0 -3 -4v-41q0 -166 6 -172q4 -4 20 -6q48 -4 86 -4q107 0 151 20
q-16 -51 -22 -96q-6 -3 -51 -3q-67 0 -144 3t-95 3q-54 0 -82 -2q10 78 10 246z" />
    <glyph glyph-name="f" unicode="f" horiz-adv-x="519" 
d="M120 244v150q0 184 -11 246q26 -3 79 -3h214q57 0 84 5q-5 -30 -9 -98q-24 10 -81 13q-60 4 -149 4q-4 0 -4 -6q0 -30 -0.5 -93.5t-0.5 -93.5q0 -5 3 -5h137q49 0 82 9q-7 -24 -10 -102q-20 11 -73 15q-40 3 -137 3q-2 0 -2 -5v-39q0 -196 9 -246q-16 2 -62 2
q-42 0 -78 -3q9 65 9 247z" />
    <glyph glyph-name="g" unicode="g" horiz-adv-x="769" 
d="M682 156v-54v-81q-39 -15 -104.5 -25t-125.5 -10q-217 0 -321 124q-75 87 -75 214q0 176 146 268q95 60 256 60q49 0 98 -7t85.5 -15t42.5 -9q-14 -56 -14 -126q-26 29 -88.5 54t-148.5 25q-111 0 -174 -60q-67 -65 -67 -171q0 -128 71 -202.5t206 -74.5q64 0 89 15
q2 2 2 22v77q0 93 -13 136q16 -2 66 -2q33 0 75 3q-6 -63 -6 -161z" />
    <glyph glyph-name="h" unicode="h" horiz-adv-x="807" 
d="M121 244v150q0 192 -12 245q22 -2 60 -2q52 0 80 4q-7 -108 -7 -233v-12q0 -5 3 -5h320q4 0 4 5v12q0 157 -9 231q26 -2 60 -2q52 0 79 4q-9 -59 -9 -247v-150q0 -174 9 -246q-22 2 -61 2q-63 0 -78 -3q9 83 9 247v57q0 4 -3 4h-321q-3 0 -3 -4v-57q0 -156 9 -246
q-20 2 -55 2q-45 0 -84 -3q9 83 9 247z" />
    <glyph glyph-name="i" unicode="i" horiz-adv-x="359" 
d="M119 244v150q0 205 -10 245q10 -2 57 -2q65 0 83 4q-8 -88 -8 -247v-150q0 -209 10 -246q-20 2 -60 2q-44 0 -80 -3q8 54 8 247z" />
    <glyph glyph-name="j" unicode="j" horiz-adv-x="366" 
d="M255 394v-216q0 -105 -4 -151.5t-20 -83.5q-16 -39 -42 -66t-55.5 -39.5t-55 -17.5t-51.5 -5q-2 20 -18 58q62 14 87 46q23 28 30.5 78t7.5 179v218q0 190 -13 246q15 -3 55 -3q66 0 88 5q-9 -76 -9 -248z" />
    <glyph glyph-name="k" unicode="k" horiz-adv-x="680" 
d="M506 640q14 -3 41 -3q40 0 112 4q-61 -45 -123 -107q-150 -150 -176 -181q72 -91 220 -243q94 -92 131 -107q-13 -9 -70 -9q-66 0 -102.5 15t-84.5 70q-57 61 -211 251q-3 6 0 9q97 88 183 196q25 27 50 60.5t30 44.5zM119 244v150q0 205 -10 245q20 -2 57 -2q51 0 83 4
q-8 -88 -8 -247v-150q0 -209 10 -246q-20 2 -53 2q-57 0 -87 -4q8 56 8 248z" />
    <glyph glyph-name="l" unicode="l" horiz-adv-x="525" 
d="M120 244v150q0 194 -11 245q20 -2 60 -2q66 0 82 4q-9 -74 -9 -243v-143q0 -167 6 -173q7 -5 23 -6q27 -3 83 -3q117 0 159 21q-5 -14 -17 -56l-11 -41q-6 -2 -61 -2q-74 0 -147 2.5t-99 2.5q-41 0 -67 -2q9 93 9 246z" />
    <glyph glyph-name="m" unicode="m" horiz-adv-x="921" 
d="M78 -3q22 95 73 508q11 82 17 131q3 16 8 16q6 0 14 -14q10 -14 41.5 -66t42.5 -68l190 -317l153 265q71 105 109 174q17 26 24 26t9 -24q14 -122 16 -135q51 -435 68 -495q-18 2 -59 2q-56 0 -82 -3q0 28 -5 99.5t-13 172.5t-10 133q-130 -227 -220 -404q-8 -14 -16 -1
q-35 73 -113.5 216t-99.5 184q-24 -331 -25 -399q-13 2 -51 2q-35 0 -71 -3z" />
    <glyph glyph-name="n" unicode="n" 
d="M229 -2q-18 2 -57 2q-45 0 -66 -3q5 54 9.5 265t4.5 343q0 22 1 32t2.5 12.5t4.5 2.5q8 0 31 -22q16 -14 198 -189.5t246 -223.5q0 276 -13 423q13 -3 51 -3q54 0 70 4q-14 -92 -16 -474q0 -26 0.5 -77.5t0.5 -61.5q0 -29 -2 -37t-7 -8q-10 0 -94 74q-52 44 -197 188.5
t-182 177.5q2 -338 15 -425z" />
    <glyph glyph-name="o" unicode="o" 
d="M404 -14q-71 0 -130 19.5t-98.5 52t-67 75.5t-40 88.5t-12.5 92.5q0 65 22.5 124.5t65.5 107.5t113 77t157 29q157 0 251 -91.5t94 -225.5q0 -152 -95 -250.5t-260 -98.5zM423 58q34 0 66.5 11.5t63.5 38t50 78t19 121.5q0 113 -61.5 193t-167.5 80q-90 0 -145.5 -62.5
t-55.5 -176.5q1 -119 62.5 -201t168.5 -82z" />
    <glyph glyph-name="p" unicode="p" horiz-adv-x="598" 
d="M118 244v150q0 186 -9 245q12 -2 50 -2q15 0 59 2t76 2q143 0 210 -59q53 -45 53 -123q0 -94 -69 -148t-173 -54q-11 45 -18 62q141 8 141 125q0 68 -46 101q-36 31 -104 31q-35 0 -44 -4q-4 -1 -4 -18v-313q0 -183 9 -243q-30 2 -65 2q-39 0 -75 -3q9 67 9 247z" />
    <glyph glyph-name="q" unicode="q" 
d="M403 -14q-73 0 -132.5 20.5t-98.5 54t-66 77.5t-38.5 89t-11.5 90q0 63 22.5 121.5t65 107t112.5 77.5t158 29q159 0 252 -91.5t93 -228.5q0 -180 -138 -281l112 -59q124 -64 211 -90.5t167 -26.5q113 0 183 31q-9 -26 -13 -60q-88 -54 -236 -54q-95 0 -188.5 31.5
t-209.5 99.5l-135 79q-47 -16 -109 -16zM427 58q33 0 64.5 11.5t62 37.5t49.5 77.5t19 122.5q0 113 -61.5 193t-167.5 80q-90 0 -145.5 -62.5t-55.5 -176.5q1 -121 63.5 -202t171.5 -81z" />
    <glyph glyph-name="r" unicode="r" horiz-adv-x="671" 
d="M121 244v150q0 205 -12 245q40 -2 59 -2q5 0 59.5 2t75.5 2q114 0 169 -31q84 -46 84 -143q0 -107 -108 -174q112 -153 169 -215q55 -61 86 -77q-21 -8 -85 -8q-42 0 -65.5 9.5t-47.5 33.5q-23 21 -54 62t-63 89t-41 60q-5 6 -11 6h-93q-3 0 -3 -4v-22q0 -161 10 -229
q-24 2 -58 2q-42 0 -81 -3q10 74 10 247zM240 562v-224q0 -6 3 -8q26 -8 93 -8q34 0 47 9q54 37 54 108q0 64 -40.5 98.5t-100.5 34.5q-42 0 -53 -4q-3 -1 -3 -6z" />
    <glyph glyph-name="s" unicode="s" horiz-adv-x="483" 
d="M42 22q11 44 9 123q27 -32 70.5 -55.5t92.5 -23.5q50 0 76 23.5t26 61.5q0 31 -17 55t-66 55l-45 28q-69 43 -95.5 87.5t-26.5 97.5q0 75 57 126.5t153 51.5q52 0 92 -7q50 -8 57 -8q-9 -30 -9 -120q-49 58 -141 58q-43 0 -68 -21.5t-25 -55.5q0 -29 14.5 -51.5
t59.5 -51.5l45 -28q80 -50 109 -92t29 -98q0 -41 -22 -84.5t-66 -70.5q-57 -36 -146 -36q-45 0 -91.5 10t-71.5 26z" />
    <glyph glyph-name="t" unicode="t" horiz-adv-x="612" 
d="M3 542q12 37 19 105q36 -10 145 -10h296q113 0 143 8q-10 -48 -12 -110q-25 16 -98 22q-70 4 -134 4v-315q2 -186 10 -248q-24 2 -55 2q-37 0 -85 -3q9 61 9 247v317q-60 0 -116 -2q-84 -4 -122 -17z" />
    <glyph glyph-name="u" unicode="u" horiz-adv-x="749" 
d="M93 639q24 -2 55 -2q67 0 88 4q-9 -70 -9 -247v-112q0 -74 14.5 -113t46.5 -64q42 -33 111 -33q72 0 108 35q29 28 39 71t10 127v89q0 166 -12 245q24 -2 51 -2q52 0 66 4q-11 -85 -11 -247v-91q0 -92 -16.5 -155t-71.5 -108q-65 -54 -181 -54q-134 0 -199 56
q-37 31 -56.5 80.5t-19.5 135.5v136q0 184 -13 245z" />
    <glyph glyph-name="v" unicode="v" horiz-adv-x="651" 
d="M1 640q30 -3 67 -3q68 0 95 5q11 -45 50 -141q62 -153 127 -302q98 209 140 320q30 75 38 120q28 -2 47 -2q46 0 86 4q-13 -19 -42 -69.5t-48 -92.5q-7 -13 -23.5 -45.5t-32.5 -66t-32 -68.5q-85 -181 -122 -257q-29 -56 -37 -56q-5 0 -10.5 9t-19.5 42q-31 73 -95 215
t-95 215q-49 113 -93 173z" />
    <glyph glyph-name="w" unicode="w" horiz-adv-x="969" 
d="M15 639q22 -2 74 -2q60 0 88 4q10 -50 47 -162q43 -145 86 -260l177 391q14 30 22 30q6 0 22 -34l163 -383q55 149 86 241q43 132 50 175q24 -2 46 -2q48 0 78 4q-62 -135 -85 -196q-12 -29 -70.5 -180t-90.5 -232q-19 -47 -29 -47q-5 0 -26 40l-166 395
q-24 -50 -90 -194.5t-88 -191.5q-27 -49 -33 -49q-7 0 -21 38l-153 425q-47 126 -87 190z" />
    <glyph glyph-name="x" unicode="x" horiz-adv-x="605" 
d="M134 -2q-24 2 -55 2q-25 0 -79 -3q39 42 114 147l126 182l-114 175q-63 99 -107 138q12 0 42 -1t47 -1q44 0 74 4q13 -30 55.5 -102t77.5 -124q49 68 71 103q59 97 65 121q14 -2 49 -2q40 0 84 4q-39 -41 -96 -119l-127 -174q21 -34 102 -163q91 -137 143 -187
q-17 2 -76 2q-87 0 -101 -3q-4 10 -24.5 51t-28.5 55q-59 104 -89 153l-95 -153q-10 -16 -58 -105z" />
    <glyph glyph-name="y" unicode="y" horiz-adv-x="590" 
d="M232 -3q9 77 9 239q0 28 -13 47q-38 70 -132 215q-10 14 -27 39t-27.5 39.5t-25 32.5t-26.5 30q32 -2 67 -2q82 0 95 4q22 -50 53 -103q4 -7 30.5 -52t51 -86t31.5 -52q71 123 124 221q22 41 33 70q20 -2 42 -2q59 0 83 3q-15 -16 -90 -126q-115 -186 -139 -242
q-8 -19 -8 -38q0 -164 9 -236q-20 2 -60 2q-60 0 -80 -3z" />
    <glyph glyph-name="z" unicode="z" horiz-adv-x="597" 
d="M66 646q41 -9 208 -9h274q20 0 20 -4q0 -3 -10 -23q-184 -286 -351 -535h161q168 0 207 23q-2 -5 -28 -99q-4 -2 -54 -2q-69 0 -214.5 1.5t-242.5 1.5q-11 0 -11 5t17 31q176 256 351 528h-129q-168 0 -216 -30q10 45 18 112z" />
    <glyph glyph-name="braceleft" unicode="{" horiz-adv-x="430" 
d="M129 350q121 -30 121 -144q0 -12 -1.5 -51.5t-1.5 -72.5q0 -72 24 -104t85 -47q-5 -27 -8 -50q-39 2 -82 15t-69 36q-57 51 -57 155q0 25 3 74t3 77q0 43 -27.5 62t-79.5 23l7 51q53 4 76 26.5t23 69.5q0 11 -2.5 50t-2.5 60q0 45 13.5 80t34.5 56t50.5 34.5t57 19
t59.5 6.5l-5 -51q-48 -8 -75.5 -35.5t-27.5 -95.5q0 -24 1.5 -54.5t1.5 -44.5q0 -112 -121 -145z" />
    <glyph glyph-name="bar" unicode="|" horiz-adv-x="444" 
d="M270 -250h-96v1000h96v-1000z" />
    <glyph glyph-name="braceright" unicode="}" horiz-adv-x="430" 
d="M301 347q-121 30 -121 144q0 17 1.5 46.5t1.5 37.5q0 75 -23 106.5t-86 45.5q2 8 8 49q108 -7 157 -53q51 -48 51 -148q0 -14 -2.5 -50t-2.5 -67q0 -44 26 -62.5t80 -22.5l-7 -50q-53 -4 -76 -26.5t-23 -69.5q0 -11 2.5 -69.5t2.5 -83.5q0 -184 -215 -193q4 17 6 50
q47 10 74.5 38t27.5 94q0 28 -1.5 73.5t-1.5 59.5q0 115 121 151z" />
    <glyph glyph-name="asciitilde" unicode="~" horiz-adv-x="675" 
d="M135 237h-66q-4 85 30.5 130t100.5 45q34 0 63.5 -11t81.5 -39q82 -45 120 -46q33 0 49 20.5t15 71.5h65q4 -177 -129 -177q-33 0 -62.5 11t-83.5 40q-83 46 -118 46q-33 0 -50 -20.5t-16 -70.5z" />
    <glyph glyph-name="uni00A0" unicode="&#xa0;" horiz-adv-x="264" 
 />
    <glyph glyph-name="exclamdown" unicode="&#xa1;" horiz-adv-x="385" 
d="M145 404l64 14q27 -426 43 -517q-77 -2 -151 -18q7 57 24 273t20 248zM178 664q34 0 52 -21.5t18 -48.5q0 -26 -18.5 -49t-52.5 -23q-30 0 -49.5 19t-19.5 49q0 31 20 52.5t50 21.5z" />
    <glyph glyph-name="cent" unicode="&#xa2;" horiz-adv-x="612" 
d="M546 238l-25 -103q-52 -22 -131 -22h-13q-5 -41 -13 -121q-51 -3 -70 -7q7 44 21 134q-104 17 -170 82t-66 180q0 111 84 183q40 34 97.5 52.5t118.5 17.5h4l12 102q49 3 65 8q-3 -19 -8.5 -56.5t-8.5 -56.5q62 -7 114 -26q-10 -38 -16 -106q-34 49 -107 62
q-4 -32 -12.5 -95.5t-13.5 -94.5q-4 -31 -11.5 -89.5t-10.5 -85.5q7 -1 20 -1q93 0 140 43zM202 387q0 -69 33.5 -115t92.5 -65q16 118 24 176q17 133 23 183q-80 -1 -126.5 -50.5t-46.5 -128.5z" />
    <glyph glyph-name="sterling" unicode="&#xa3;" horiz-adv-x="647" 
d="M199 83l167 1q184 2 233 23q-11 -27 -31 -111q-15 0 -140 2t-180 2h-201l15 65q61 15 83.5 65.5t36.5 191.5l3 28q-67 0 -109 -2q6 19 18 73l99 -2l2 14q11 107 38.5 174t78.5 108q64 52 168 52q45 0 91 -10q16 -4 31 -7q-7 -23 -16 -115q-34 46 -118 46q-61 0 -96.5 -45
t-48.5 -162l-7 -55q133 0 187 2q-12 -44 -16 -73q-42 3 -179 3q-5 -41 -10.5 -71t-17 -70.5t-32 -72.5t-49.5 -54z" />
    <glyph glyph-name="currency" unicode="&#xa4;" horiz-adv-x="597" 
d="M571 561l-83 -76q32 -50 32 -118q0 -73 -32 -124l83 -75q-36 -30 -58 -60l-76 81q-53 -37 -122 -37q-66 0 -121 37l-76 -81q-30 35 -59 60l83 75q-32 50 -32 120q0 69 33 121l-84 77q45 43 59 60l76 -82q52 36 121 36q71 0 122 -35l76 81q16 -20 58 -60zM315 228
q49 0 84 34t35 104q0 56 -32 94.5t-87 38.5q-53 0 -86 -38t-33 -98q0 -66 36.5 -100.5t82.5 -34.5z" />
    <glyph glyph-name="yen" unicode="&#xa5;" horiz-adv-x="613" 
d="M507 341q-46 2 -141 2q0 -50 1 -77q106 0 156 2q-9 -30 -16 -67q-44 2 -139 2q4 -164 8 -205q-22 2 -62 2q-46 0 -84 -4q6 36 9 207q-107 0 -151 -2q9 29 17 67q32 -2 135 -2q1 26 1 77q-113 0 -153 -2q6 17 17 67q32 -2 129 -2q-25 46 -116 189q-64 105 -113 157
q38 -2 65 -2q69 0 100 4q10 -23 36 -72.5t65 -121t48 -89.5q109 200 142 281q22 -2 44 -2q69 0 87 4q-22 -23 -99 -145q-53 -83 -115 -203q107 0 145 2q-9 -26 -16 -67z" />
    <glyph glyph-name="brokenbar" unicode="&#xa6;" horiz-adv-x="444" 
d="M270 325h-96v350h96v-350zM270 -175h-96v350h96v-350z" />
    <glyph glyph-name="section" unicode="&#xa7;" horiz-adv-x="608" 
d="M82 -130q11 48 15 118q62 -77 168 -77q44 0 71.5 21.5t27.5 57.5q0 32 -21.5 56t-87.5 64q-103 60 -143.5 107t-40.5 112q0 97 101 161q-52 49 -52 116q0 71 56 116t152 45q52 0 101 -11q34 -8 47 -11q-14 -66 -15 -112q-54 62 -151 62q-43 0 -67 -19.5t-24 -51.5
q0 -29 23.5 -51.5t101.5 -69.5q46 -27 70 -44t52.5 -43.5t40.5 -56.5t12 -68q0 -103 -98 -167q47 -44 47 -112q0 -75 -61 -128t-161 -53q-92 0 -164 39zM221 452q-58 -30 -58 -90q0 -35 22.5 -63.5t91.5 -70.5q75 -47 94 -62q51 30 51 91q0 34 -20 63.5t-81 69.5
q-24 16 -45 29t-36 21.5t-19 11.5z" />
    <glyph glyph-name="dieresis" unicode="&#xa8;" horiz-adv-x="400" 
d="M313 728q-29 0 -44 16.5t-15 39.5q0 21 15 38.5t44 17.5q26 0 42.5 -15t16.5 -39q0 -26 -16 -42t-43 -16zM86 728q-29 0 -43.5 17t-14.5 39t15 38t44 16q26 0 42.5 -14t16.5 -38q0 -27 -16 -42.5t-44 -15.5z" />
    <glyph glyph-name="copyright" unicode="&#xa9;" horiz-adv-x="920" 
d="M448 -17q-173 0 -282 111t-109 280q0 164 112.5 278.5t278.5 114.5q173 0 280.5 -111.5t107.5 -281.5q0 -166 -111.5 -278.5t-276.5 -112.5zM448 25q153 0 245 99t92 251q0 148 -95.5 249t-241.5 101q-151 0 -245 -100t-94 -250q0 -148 97 -249t242 -101zM607 175
q-47 -20 -117 -20q-113 0 -185 62q-69 61 -69 164q0 93 65 153q68 61 178 61q26 0 51.5 -3t39.5 -6t31 -7.5t22 -5.5q-13 -45 -13 -78q-19 18 -55.5 31t-77.5 13q-68 0 -108 -36q-44 -40 -44 -115q0 -70 44 -120t130 -50q77 0 118 29q-3 -7 -10 -72z" />
    <glyph glyph-name="ordfeminine" unicode="&#xaa;" horiz-adv-x="426" 
d="M353 555v-115q0 -85 11 -122q-35 0 -86 -7q-4 18 -6 51q-42 -52 -115 -52q-52 0 -83.5 33t-31.5 82q0 69 57.5 101.5t164.5 41.5v11q0 65 -75 65q-63 0 -111 -40q4 40 2 81q48 29 124 29q149 0 149 -159zM266 440v70q-136 -13 -136 -75q0 -26 16.5 -41.5t40.5 -15.5
q51 0 74 41q5 7 5 21z" />
    <glyph glyph-name="guillemotleft" unicode="&#xab;" horiz-adv-x="623" 
d="M303 164q-34 -30 -59 -61q-102 119 -179 198q-21 19 -21 23t20 21q78 70 210 205q12 -14 43 -43q-154 -165 -166 -180q19 -24 67.5 -76.5t84.5 -86.5zM554 164q-35 -29 -59 -61q-132 149 -179 198q-22 20 -22 23t21 21q89 80 209 205q7 -7 22 -21.5t21 -21.5
q-78 -84 -166 -180q66 -81 153 -163z" />
    <glyph glyph-name="logicalnot" unicode="&#xac;" horiz-adv-x="675" 
d="M582 165h-72v193h-417v73h489v-266z" />
    <glyph glyph-name="uni00AD" unicode="&#xad;" horiz-adv-x="380" 
d="M66 369h274q-7 -24 -21 -78q-204 -10 -279 -21q16 43 26 99z" />
    <glyph glyph-name="registered" unicode="&#xae;" horiz-adv-x="239" 
d="M127 544q-48 0 -79 31.5t-31 79.5t31 80t79 32q49 0 80 -31.5t31 -80.5q0 -47 -31.5 -79t-79.5 -32zM128 563q39 0 64.5 26t25.5 67t-25.5 66.5t-65.5 25.5q-39 0 -64.5 -25t-25.5 -67q0 -40 25.5 -66.5t65.5 -26.5zM88 647v25q0 30 -2 44h9q3 0 12.5 0.5t16.5 0.5
q46 0 46 -35q0 -21 -21 -31l12 -17q16 -23 29 -30q-4 -3 -13 -3q-19 0 -30 14q-3 3 -20 29h-17v-5q0 -23 2 -37q-4 1 -13 1q-8 0 -13 -1q2 22 2 45zM110 699v-36q6 -2 14 -2q7 0 13 3q9 4 9 16q0 20 -23 20q-8 0 -13 -1z" />
    <glyph glyph-name="macron" unicode="&#xaf;" horiz-adv-x="400" 
d="M342 740q-27 -4 -245 -4h-60l22 77q28 -3 218 -3h86q-9 -47 -21 -70z" />
    <glyph glyph-name="degree" unicode="&#xb0;" horiz-adv-x="310" 
d="M275 612q0 -52 -35.5 -86t-86.5 -34q-52 0 -85.5 33.5t-33.5 83.5q0 51 34 85.5t86 34.5q57 0 89 -33.5t32 -83.5zM221 611q0 27 -17 48t-50 21q-30 0 -47.5 -20t-17.5 -50q0 -29 19 -49t47 -20t47 20t19 50z" />
    <glyph glyph-name="plusminus" unicode="&#xb1;" horiz-adv-x="675" 
d="M582 36h-489v72h489v-72zM582 387h-207v-209h-73v209h-209v72h208v202h73v-202h208v-72z" />
    <glyph glyph-name="twosuperior" unicode="&#xb2;" horiz-adv-x="370" 
d="M329 471q-7 -3 -46 -3q-32 0 -102 1.5t-112 1.5q-36 0 -52 -2q5 22 13 37q4 10 7 12q64 55 96.5 87t60.5 77.5t28 87.5q0 43 -22 62.5t-56 19.5q-60 0 -105 -48q0 7 -5 82q61 35 131 35q78 0 115.5 -39.5t37.5 -99.5q0 -21 -4.5 -40.5t-15.5 -39.5t-19.5 -33.5t-28 -34.5
t-28.5 -30t-33.5 -32t-30.5 -29q-2 -2 1 -2h33q65 0 95 2q45 5 61 13q-10 -28 -19 -85z" />
    <glyph glyph-name="threesuperior" unicode="&#xb3;" horiz-adv-x="382" 
d="M33 485q8 44 8 88q10 -15 41 -29.5t67 -14.5q41 0 66 18.5t25 54.5q0 76 -122 72q10 40 6 62q47 0 73.5 16.5t26.5 47.5q0 23 -16.5 39.5t-53.5 16.5q-30 0 -57.5 -12.5t-41.5 -29.5l-1 1q3 48 -4 79q57 27 123 27q77 0 111.5 -31.5t34.5 -70.5q0 -70 -79 -101
q-2 -2 0 -2q41 -10 69.5 -36.5t28.5 -73.5q0 -60 -51.5 -101t-139.5 -41q-77 0 -114 21z" />
    <glyph glyph-name="acute" unicode="&#xb4;" horiz-adv-x="400" 
d="M126 749l179 151q7 -13 28 -40.5t35 -42.5q-17 -7 -90.5 -46.5t-118.5 -66.5z" />
    <glyph glyph-name="uni00B5" unicode="&#xb5;" horiz-adv-x="649" 
d="M616 68l-4 -55q-32 -24 -86 -24q-85 0 -93 84q-54 -83 -159 -83q-57 0 -78 31q4 -127 25 -229q-84 -8 -121 -15q6 143 6 353v114q0 232 -6 263q22 -2 45 -2q44 0 72 4q-9 -63 -9 -268v-62q0 -51 25 -79t74 -28q38 0 71 23.5t49 57.5v78q0 224 -8 276q20 -2 47 -2
q44 0 72 4q-8 -70 -8 -268v-100q0 -43 10 -61t39 -18q15 0 37 6z" />
    <glyph glyph-name="paragraph" unicode="&#xb6;" horiz-adv-x="750" 
d="M451 -172q-38 -10 -69 -24q0 2 1 25.5t2.5 61t3 82t2.5 98t1 99.5v285q0 115 -3 226q0 7 -7 7q-62 0 -92 -43q-31 -45 -31 -127q0 -78 25.5 -118t67.5 -62l-16 -46q-111 0 -190.5 65.5t-79.5 171.5q0 90 64 150q78 72 253 72q4 0 46 -0.5t71 -0.5q74 0 98 3
q-14 -65 -14 -290v-297q0 -249 4 -300q-46 -16 -68 -26q0 1 2 47t4.5 123.5t2.5 155.5v303q0 168 -1 216q0 6 -7 6h-65q-6 0 -7 -8q-3 -33 -3 -220v-293q0 -287 5 -342z" />
    <glyph glyph-name="periodcentered" unicode="&#xb7;" horiz-adv-x="292" 
d="M83 402q76 0 120 -23q16 -9 16 -19q0 -25 -31 -57t-68 -52q-19 -8 -20 -8q-2 0 -2 4q0 3 5 18q9 27 9 58q0 26 -10 46t-20 28q-3 1 -2 4q1 1 3 1z" />
    <glyph glyph-name="cedilla" unicode="&#xb8;" horiz-adv-x="460" 
d="M216 -4h64l-45 -53q41 -7 72 -28.5t31 -61.5q0 -38 -37.5 -69t-125.5 -31q-10 0 -34 2l11 49q93 -2 93 46q0 44 -93 49l7 28z" />
    <glyph glyph-name="onesuperior" unicode="&#xb9;" horiz-adv-x="280" 
d="M109 639v152q0 25 -3 25q-5 0 -32.5 -12t-43.5 -21q6 33 6 75q90 22 154 57q11 7 15 7t4 -11q0 -5 -1 -28.5t-2 -85t-1 -158.5q0 -125 6 -170q-20 2 -47 2q-35 0 -59 -4q4 36 4 172z" />
    <glyph glyph-name="ordmasculine" unicode="&#xba;" horiz-adv-x="469" 
d="M239 708q82 0 138 -54t56 -139q0 -98 -60 -154.5t-142 -56.5q-85 0 -140 55.5t-55 145.5q0 92 59 147.5t144 55.5zM229 641q-50 0 -76 -36.5t-26 -92.5q0 -64 31 -102t81 -38q45 0 73.5 35.5t28.5 94.5q0 61 -29.5 100t-82.5 39z" />
    <glyph glyph-name="guillemotright" unicode="&#xbb;" horiz-adv-x="623" 
d="M320 491q28 23 59 60q122 -139 180 -197q20 -20 20 -24q0 -3 -20 -20q-70 -63 -209 -205q-4 5 -44 42q161 173 167 180q-72 87 -153 164zM70 491q32 28 59 60q130 -148 179 -197q21 -21 21 -24q0 -2 -21 -20q-68 -61 -209 -205q-7 8 -23 23.5t-20 18.5q89 96 166 180
q-18 23 -66.5 76t-85.5 88z" />
    <glyph glyph-name="onequarter" unicode="&#xbc;" horiz-adv-x="848" 
d="M133 478v152q0 25 -3 25q-16 0 -77 -33q7 26 7 75q90 22 154 57q11 7 15 7t4 -11q0 -5 -1.5 -28.5t-2.5 -85t-1 -158.5q0 -118 7 -170q-20 2 -48 2q-33 0 -59 -4q5 45 5 172zM666 779q17 -14 44 -31q-186 -265 -268 -387q-100 -147 -256 -383q-25 19 -42 31
q254 369 262 381q138 204 260 389zM780 109q-52 4 -63 4q0 -68 5 -115q-22 2 -39 2q-19 0 -53 -4q6 41 6 117q-62 0 -121.5 0.5t-60.5 0.5q-21 0 -21 5q0 4 19 29q198 240 226 272q26 30 34 30q6 0 6 -31q0 -2 -0.5 -28t-0.5 -42v-181q54 0 75 4q-7 -24 -12 -63zM636 168
v135q-12 -15 -51.5 -67t-49.5 -67q23 -1 101 -1z" />
    <glyph glyph-name="onehalf" unicode="&#xbd;" horiz-adv-x="899" 
d="M135 478v152q0 25 -3 25q-16 0 -77 -33q7 26 7 75q90 22 154 57q10 7 15 7q4 0 4 -11q0 -5 -1.5 -28.5t-2.5 -85t-1 -158.5q0 -118 7 -170q-20 2 -48 2q-33 0 -59 -4q5 45 5 172zM648 776q9 -7 43 -31q-171 -243 -268 -387q-86 -127 -256 -383q-27 22 -42 31
q167 242 263 382q189 280 260 388zM822 -1q-6 -2 -45 -2q-32 0 -102.5 1.5t-111.5 1.5q-36 0 -52 -2q0 7 12 36q7 12 8 12q94 82 139 137t46 116q0 43 -22 62t-56 19q-60 0 -105 -47q0 7 -5 82q58 35 131 35q78 0 115 -39.5t37 -99.5q0 -21 -4 -40.5t-16 -39.5t-19.5 -33.5
t-28 -35.5t-28 -29.5t-33.5 -32.5t-31 -29q-2 -2 1 -2h34q50 0 94 3q43 3 62 13q-4 -10 -20 -86z" />
    <glyph glyph-name="threequarters" unicode="&#xbe;" horiz-adv-x="872" 
d="M715 776q9 -7 43 -31q-171 -243 -268 -387q-86 -127 -256 -383q-27 22 -42 31q167 242 263 382q189 280 260 388zM804 109q-26 4 -63 4q0 -67 5 -115q-22 2 -39 2q-19 0 -53 -4q6 41 6 117q-62 0 -121.5 0.5t-60.5 0.5q-21 0 -21 5q0 6 19 29q203 246 226 272
q26 30 34 30q6 0 6 -31q0 -2 -0.5 -28t-0.5 -42v-180q51 -2 75 4q-7 -23 -12 -64zM660 169v134q-13 -16 -52 -67.5t-49 -66.5h101zM55 324q8 44 8 88q10 -15 41 -29.5t67 -14.5q41 0 66 18.5t25 54.5q0 76 -122 72q10 40 6 62q47 0 73.5 16.5t26.5 47.5q0 23 -16.5 39.5
t-53.5 16.5q-30 0 -57.5 -12.5t-41.5 -29.5l-1 1q3 48 -4 79q57 27 123 27q77 0 111.5 -31.5t34.5 -70.5q0 -70 -79 -101q-2 -2 0 -2q41 -10 69.5 -36.5t28.5 -73.5q0 -60 -51.5 -101t-139.5 -41q-77 0 -114 21z" />
    <glyph glyph-name="questiondown" unicode="&#xbf;" horiz-adv-x="563" 
d="M266 536l76 14q51 -43 51 -107q0 -33 -20 -61.5t-69 -80.5q-47 -48 -64 -78t-17 -63q0 -38 25.5 -64.5t78.5 -26.5q96 0 155 72q-4 -53 10 -122q-3 -1 -23.5 -8t-32.5 -10t-33.5 -8t-45 -7.5t-49.5 -2.5q-113 0 -163.5 53.5t-50.5 120.5q0 25 7 49t13 39t27 41t29 34.5
t41 41.5l41 41q17 16 26 30.5t10 21.5t1 19q0 30 -23 62zM311 766q34 0 52 -21.5t18 -48.5q0 -26 -18.5 -48.5t-52.5 -22.5q-30 0 -49.5 19.5t-19.5 49.5q0 31 19.5 51.5t50.5 20.5z" />
    <glyph glyph-name="Agrave" unicode="&#xc0;" horiz-adv-x="722" 
d="M464 220h-248q-4 0 -5 -3q-58 -157 -74 -219q-26 2 -57 2q-52 0 -74 -4q43 84 118 257l200 466q22 48 29 48q9 0 30 -48q148 -330 201 -452q96 -217 132 -269q-52 2 -65 2q-61 0 -93 -4q-31 85 -90 221q-2 3 -4 3zM243 302h190q4 0 3 4l-100 248l-95 -248q-1 -4 2 -4z
M242 1014l180 -164l-34 -42q-170 109 -214 128q46 46 68 78z" />
    <glyph glyph-name="Aacute" unicode="&#xc1;" horiz-adv-x="722" 
d="M464 220h-248q-4 0 -5 -3q-58 -157 -74 -219q-26 2 -57 2q-52 0 -74 -4q43 84 118 257l200 466q22 48 29 48q9 0 30 -48q148 -330 201 -452q96 -217 132 -269q-52 2 -65 2q-61 0 -93 -4q-31 85 -90 221q-2 3 -4 3zM243 302h190q4 0 3 4l-100 248l-95 -248q-1 -4 2 -4z
M284 853l180 157q35 -47 68 -78q-38 -15 -214 -123z" />
    <glyph glyph-name="Acircumflex" unicode="&#xc2;" horiz-adv-x="722" 
d="M464 220h-248q-4 0 -5 -3q-58 -157 -74 -219q-26 2 -57 2q-52 0 -74 -4q43 84 118 257l200 466q22 48 29 48q9 0 30 -48q148 -330 201 -452q96 -217 132 -269q-52 2 -65 2q-61 0 -93 -4q-31 85 -90 221q-2 3 -4 3zM243 302h190q4 0 3 4l-100 248l-95 -248q-1 -4 2 -4z
M345 980h20q29 -27 82.5 -69t81.5 -60l-35 -47q-75 43 -143 83q-80 -47 -141 -82l-31 47q38 26 92 67t74 61z" />
    <glyph glyph-name="Atilde" unicode="&#xc3;" horiz-adv-x="722" 
d="M464 220h-248q-4 0 -5 -3q-58 -157 -74 -219q-26 2 -57 2q-52 0 -74 -4q43 84 118 257l200 466q22 48 29 48q9 0 30 -48q148 -330 201 -452q96 -217 132 -269q-52 2 -65 2q-61 0 -93 -4q-31 85 -90 221q-2 3 -4 3zM243 302h190q4 0 3 4l-100 248l-95 -248q-1 -4 2 -4z
M429 829q-35 0 -87 23.5t-70 23.5q-41 0 -82 -50l-31 39q19 36 50.5 59.5t67.5 23.5q29 0 89 -23q46 -20 74 -20q41 0 79 48l31 -34q-17 -36 -50 -63t-71 -27z" />
    <glyph glyph-name="Adieresis" unicode="&#xc4;" horiz-adv-x="722" 
d="M464 220h-248q-4 0 -5 -3q-58 -157 -74 -219q-26 2 -57 2q-52 0 -74 -4q43 84 118 257l200 466q22 48 29 48q9 0 30 -48q148 -330 201 -452q96 -217 132 -269q-52 2 -65 2q-61 0 -93 -4q-31 85 -90 221q-2 3 -4 3zM243 302h190q4 0 3 4l-100 248l-95 -248q-1 -4 2 -4z
M467 827q-29 0 -43.5 16.5t-14.5 38.5q0 21 14.5 38.5t43.5 17.5q27 0 43.5 -14.5t16.5 -38.5q0 -27 -16 -42.5t-44 -15.5zM240 827q-29 0 -43 16.5t-14 38.5q0 23 14.5 39t43.5 16q26 0 42.5 -14t16.5 -38q0 -27 -15.5 -42.5t-44.5 -15.5z" />
    <glyph glyph-name="Aring" unicode="&#xc5;" horiz-adv-x="722" 
d="M464 220h-248q-4 0 -5 -3q-58 -157 -74 -219q-26 2 -57 2q-52 0 -74 -4q43 84 118 257l200 466q22 48 29 48q9 0 30 -48q148 -330 201 -452q96 -217 132 -269q-52 2 -65 2q-61 0 -93 -4q-31 85 -90 221q-2 3 -4 3zM243 302h190q4 0 3 4l-100 248l-95 -248q-1 -4 2 -4z
M352 799q-44 0 -70 23.5t-26 62.5q0 37 26 62.5t70 25.5q45 0 70.5 -24.5t25.5 -58.5q0 -44 -29 -67.5t-67 -23.5zM308 885q0 -20 12.5 -30.5t31.5 -10.5q44 0 44 44q0 17 -11.5 29t-32.5 12q-18 0 -31 -11t-13 -33z" />
    <glyph glyph-name="AE" unicode="&#xc6;" horiz-adv-x="966" 
d="M496 399v244q0 3 -2 1q-105 -171 -144 -248q-4 -4 2 -4h139q5 0 5 7zM-1 -3q26 32 98 151t171 285.5t158 259.5q12 19 27 61q28 -4 91 -4h252q73 0 92 6q-9 -47 -9 -112q-22 13 -93 20q-66 4 -161 4q-3 0 -3 -4v-267q0 -5 3 -5q47 -2 154 1q64 1 92 8q-11 -55 -9 -113
q-24 14 -77 18q-44 4 -160 4q-3 0 -3 -5v-43q0 -165 7 -172q5 -5 23 -7q35 -4 96 -4q123 0 170 23q-15 -54 -23 -105q-5 -4 -56 -4q-76 0 -166.5 3.5t-117.5 3.5q-57 0 -69 -3q10 93 10 268v41q0 5 -5 5h-178q-6 0 -12 -8q-11 -17 -83 -146.5t-85 -158.5q-18 2 -65 2
q-48 0 -69 -3z" />
    <glyph glyph-name="Ccedilla" unicode="&#xc7;" horiz-adv-x="791" 
d="M395 -72l51 58q-158 16 -261 105q-124 111 -124 295q0 168 114 274q118 107 319 107q47 0 92.5 -5t70.5 -10.5t57.5 -14t37.5 -9.5q-15 -55 -17 -127q-36 36 -102 60t-150 24q-121 0 -196 -67q-84 -76 -84 -219q0 -49 11.5 -94.5t37.5 -87.5t63 -73t93 -49.5t123 -18.5
q143 0 218 54q-16 -56 -22 -114q-32 -13 -91.5 -23t-119.5 -10h-9l-35 -38q45 -6 77.5 -29t32.5 -64q0 -39 -37.5 -70.5t-125.5 -31.5q-14 0 -38 2l12 49q94 -1 94 49q0 46 -92 49v29z" />
    <glyph glyph-name="Egrave" unicode="&#xc8;" horiz-adv-x="601" 
d="M138 287v176q0 240 -13 289q17 -2 79 -2h234q73 0 92 6q-10 -50 -10 -112q-23 14 -93 20q-66 4 -160 4q-4 0 -4 -3v-222q0 -5 4 -5q121 0 154 1q71 2 91 9q-11 -59 -9 -113q-27 14 -77 18q-66 4 -159 4q-4 0 -4 -4v-55q0 -202 7 -208q5 -5 23 -7q36 -4 96 -4
q122 0 171 23q-15 -49 -24 -105q-5 -4 -56 -4q-78 0 -164 3.5t-103 3.5q-64 0 -85 -3q10 123 10 290zM226 1006l180 -164l-34 -42q-186 116 -214 127q53 56 68 79z" />
    <glyph glyph-name="Eacute" unicode="&#xc9;" horiz-adv-x="601" 
d="M138 287v176q0 240 -13 289q17 -2 79 -2h234q73 0 92 6q-10 -50 -10 -112q-23 14 -93 20q-66 4 -160 4q-4 0 -4 -3v-222q0 -5 4 -5q121 0 154 1q71 2 91 9q-11 -59 -9 -113q-27 14 -77 18q-66 4 -159 4q-4 0 -4 -4v-55q0 -202 7 -208q5 -5 23 -7q36 -4 96 -4
q122 0 171 23q-15 -49 -24 -105q-5 -4 -56 -4q-78 0 -164 3.5t-103 3.5q-64 0 -85 -3q10 123 10 290zM262 846l180 157q35 -47 68 -78q-42 -17 -214 -123z" />
    <glyph glyph-name="Ecircumflex" unicode="&#xca;" horiz-adv-x="601" 
d="M138 287v176q0 240 -13 289q17 -2 79 -2h234q73 0 92 6q-10 -50 -10 -112q-23 14 -93 20q-66 4 -160 4q-4 0 -4 -3v-222q0 -5 4 -5q121 0 154 1q71 2 91 9q-11 -59 -9 -113q-27 14 -77 18q-66 4 -159 4q-4 0 -4 -4v-55q0 -202 7 -208q5 -5 23 -7q36 -4 96 -4
q122 0 171 23q-15 -49 -24 -105q-5 -4 -56 -4q-78 0 -164 3.5t-103 3.5q-64 0 -85 -3q10 123 10 290zM322 987h20q63 -59 164 -129l-35 -47q-19 11 -68 39.5t-75 44.5q-58 -36 -141 -83l-31 47q38 26 92 67t74 61z" />
    <glyph glyph-name="Edieresis" unicode="&#xcb;" horiz-adv-x="601" 
d="M138 287v176q0 240 -13 289q17 -2 79 -2h234q73 0 92 6q-10 -50 -10 -112q-23 14 -93 20q-66 4 -160 4q-4 0 -4 -3v-222q0 -5 4 -5q121 0 154 1q71 2 91 9q-11 -59 -9 -113q-27 14 -77 18q-66 4 -159 4q-4 0 -4 -4v-55q0 -202 7 -208q5 -5 23 -7q36 -4 96 -4
q122 0 171 23q-15 -49 -24 -105q-5 -4 -56 -4q-78 0 -164 3.5t-103 3.5q-64 0 -85 -3q10 123 10 290zM438 830q-29 0 -44 16.5t-15 38.5t15 39t44 17q26 0 42.5 -14.5t16.5 -38.5q0 -26 -15.5 -42t-43.5 -16zM211 830q-29 0 -43.5 16.5t-14.5 38.5q0 23 15 39t44 16
q25 0 41.5 -14t16.5 -38q0 -27 -15.5 -42.5t-43.5 -15.5z" />
    <glyph glyph-name="Igrave" unicode="&#xcc;" horiz-adv-x="397" 
d="M136 287v176q0 245 -11 289q11 -2 60 -2q66 0 86 4q-9 -86 -9 -291v-176q0 -242 11 -289q-22 2 -62 2q-58 0 -84 -4q9 72 9 291zM90 1015l181 -164l-35 -42q-185 115 -213 128q43 43 67 78z" />
    <glyph glyph-name="Iacute" unicode="&#xcd;" horiz-adv-x="397" 
d="M136 287v176q0 245 -11 289q11 -2 60 -2q66 0 86 4q-9 -86 -9 -291v-176q0 -242 11 -289q-22 2 -62 2q-58 0 -84 -4q9 72 9 291zM137 853l181 157q35 -47 68 -78q-33 -13 -215 -123z" />
    <glyph glyph-name="Icircumflex" unicode="&#xce;" horiz-adv-x="397" 
d="M136 287v176q0 245 -11 289q11 -2 60 -2q66 0 86 4q-9 -86 -9 -291v-176q0 -242 11 -289q-22 2 -62 2q-58 0 -84 -4q9 72 9 291zM190 987h20q63 -59 164 -129l-35 -47q-19 11 -68 39.5t-75 44.5q-58 -36 -141 -83l-31 47q38 26 92 67t74 61z" />
    <glyph glyph-name="Idieresis" unicode="&#xcf;" horiz-adv-x="397" 
d="M136 287v176q0 245 -11 289q11 -2 60 -2q66 0 86 4q-9 -86 -9 -291v-176q0 -242 11 -289q-22 2 -62 2q-58 0 -84 -4q9 72 9 291zM311 835q-29 0 -43.5 16.5t-14.5 39.5q0 21 14.5 38.5t43.5 17.5q27 0 43.5 -15t16.5 -39q0 -27 -16 -42.5t-44 -15.5zM84 835
q-29 0 -43 16.5t-14 39.5q0 22 14.5 38t43.5 16q26 0 42.5 -14t16.5 -38q0 -27 -15.5 -42.5t-44.5 -15.5z" />
    <glyph glyph-name="Eth" unicode="&#xd0;" horiz-adv-x="903" 
d="M150 420v44q0 228 -12 288q22 -2 65 -2q11 0 65.5 1.5t96.5 2.5q128 -1 222 -26t160 -92q95 -97 95 -253q0 -168 -108 -278q-117 -117 -323 -117q-60 0 -117 5q-115 9 -152 6q8 117 8 284v67q-59 0 -99 -2q3 8 17 73q12 -1 82 -1zM276 351v-22q0 -139 2 -187q2 -47 7 -52
q11 -9 49.5 -16.5t87.5 -7.5q128 0 200 67q84 78 84 224q0 129 -63 212q-87 111 -278 111q-55 0 -83 -8q-4 -3 -4 -7q-2 -20 -2 -193v-53q160 0 220 2q-9 -30 -17 -73q-43 3 -203 3z" />
    <glyph glyph-name="Ntilde" unicode="&#xd1;" horiz-adv-x="920" 
d="M249 -2q-19 2 -59 2q-52 0 -70 -4q7 61 11.5 306t4.5 409q0 56 9 56q7 0 34 -26q33 -32 240.5 -244t268.5 -264q-4 399 -14 519q20 -2 54 -2q56 0 72 4q-6 -49 -11 -211t-4 -337v-147q0 -79 -10 -79q-9 0 -101 87q-50 47 -213 219t-228 235q4 -432 16 -523zM533 831
q-35 0 -87 23.5t-70 23.5q-41 0 -82 -50l-31 39q19 36 50.5 60t67.5 24q30 0 89 -24q49 -20 74 -20q41 0 79 48l31 -34q-18 -36 -50.5 -63t-70.5 -27z" />
    <glyph glyph-name="Ograve" unicode="&#xd2;" horiz-adv-x="915" 
d="M452 -17q-98 0 -175.5 35t-123 92t-69 123.5t-23.5 135.5q0 77 26 147t74.5 126.5t127 90.5t176.5 34q176 0 283 -107.5t107 -265.5q0 -178 -108.5 -294.5t-294.5 -116.5zM478 62q40 0 78 14.5t75 46.5t59.5 94t22.5 146q0 138 -74.5 232t-198.5 94q-106 0 -172 -77.5
t-65 -212.5q0 -147 74 -242t201 -95zM353 1023l181 -164l-35 -42q-168 107 -213 128q49 51 67 78z" />
    <glyph glyph-name="Oacute" unicode="&#xd3;" horiz-adv-x="915" 
d="M452 -17q-98 0 -175.5 35t-123 92t-69 123.5t-23.5 135.5q0 77 26 147t74.5 126.5t127 90.5t176.5 34q176 0 283 -107.5t107 -265.5q0 -178 -108.5 -294.5t-294.5 -116.5zM478 62q40 0 78 14.5t75 46.5t59.5 94t22.5 146q0 138 -74.5 232t-198.5 94q-106 0 -172 -77.5
t-65 -212.5q0 -147 74 -242t201 -95zM375 865l180 157q36 -49 68 -77q-30 -13 -214 -123z" />
    <glyph glyph-name="Ocircumflex" unicode="&#xd4;" horiz-adv-x="915" 
d="M452 -17q-98 0 -175.5 35t-123 92t-69 123.5t-23.5 135.5q0 77 26 147t74.5 126.5t127 90.5t176.5 34q176 0 283 -107.5t107 -265.5q0 -178 -108.5 -294.5t-294.5 -116.5zM478 62q40 0 78 14.5t75 46.5t59.5 94t22.5 146q0 138 -74.5 232t-198.5 94q-106 0 -172 -77.5
t-65 -212.5q0 -147 74 -242t201 -95zM449 996h20q64 -62 164 -130l-35 -47q-19 11 -68 39.5t-75 44.5q-58 -36 -141 -83l-31 47q128 91 166 129z" />
    <glyph glyph-name="Otilde" unicode="&#xd5;" horiz-adv-x="915" 
d="M452 -17q-98 0 -175.5 35t-123 92t-69 123.5t-23.5 135.5q0 77 26 147t74.5 126.5t127 90.5t176.5 34q176 0 283 -107.5t107 -265.5q0 -178 -108.5 -294.5t-294.5 -116.5zM478 62q40 0 78 14.5t75 46.5t59.5 94t22.5 146q0 138 -74.5 232t-198.5 94q-106 0 -172 -77.5
t-65 -212.5q0 -147 74 -242t201 -95zM531 840q-35 0 -87 23.5t-71 23.5q-40 0 -81 -50l-31 39q19 36 50.5 60t67.5 24q30 0 88 -24q51 -20 75 -20q41 0 78 48l31 -34q-18 -36 -50 -63t-70 -27z" />
    <glyph glyph-name="Odieresis" unicode="&#xd6;" horiz-adv-x="915" 
d="M452 -17q-98 0 -175.5 35t-123 92t-69 123.5t-23.5 135.5q0 77 26 147t74.5 126.5t127 90.5t176.5 34q176 0 283 -107.5t107 -265.5q0 -178 -108.5 -294.5t-294.5 -116.5zM478 62q40 0 78 14.5t75 46.5t59.5 94t22.5 146q0 138 -74.5 232t-198.5 94q-106 0 -172 -77.5
t-65 -212.5q0 -147 74 -242t201 -95zM570 843q-29 0 -44 16.5t-15 38.5t15 39t44 17q26 0 42.5 -14.5t16.5 -38.5q0 -27 -15.5 -42.5t-43.5 -15.5zM343 843q-29 0 -43.5 16.5t-14.5 38.5q0 23 15 39t44 16q26 0 42.5 -14t16.5 -38q0 -27 -15.5 -42.5t-44.5 -15.5z" />
    <glyph glyph-name="multiply" unicode="&#xd7;" horiz-adv-x="675" 
d="M504 103l-166 164l-167 -167l-58 58l168 166l-168 167l58 58l166 -167l168 168l57 -57l-167 -168l165 -166z" />
    <glyph glyph-name="Oslash" unicode="&#xd8;" horiz-adv-x="915" 
d="M736 671q119 -108 119 -277q0 -178 -109 -294.5t-294 -116.5q-123 0 -212 54q-5 -6 -64 -83q-20 21 -50 43q48 60 62 78q-63 56 -95 134t-32 160q0 76 26 146.5t74.5 127t127.5 90.5t176 34q124 0 219 -57q40 52 58 75q20 -18 51 -41q-4 -5 -24.5 -31t-32.5 -42zM198 399
q0 -138 65 -229q137 174 354 454q-71 65 -177 65q-109 0 -176 -77.5t-66 -212.5zM479 62q41 0 80 14.5t76 46.5t60 94t23 146q0 126 -58 211q-249 -315 -354 -451q70 -61 173 -61z" />
    <glyph glyph-name="Ugrave" unicode="&#xd9;" horiz-adv-x="841" 
d="M106 752q26 -2 57 -2q68 0 92 4q-10 -70 -10 -291v-133q0 -88 17 -135t52 -77q49 -42 134 -42q81 0 125 45q37 35 48.5 85.5t11.5 149.5v107q0 207 -13 289q26 -2 54 -2q53 0 69 4q-12 -70 -12 -291v-108q0 -71 -5 -117.5t-28 -100.5t-66 -90q-74 -64 -205 -64
q-147 0 -221 67q-42 37 -64.5 95t-22.5 159v159q0 231 -13 289zM316 1012l181 -164l-35 -42q-185 116 -213 127q50 53 67 79z" />
    <glyph glyph-name="Uacute" unicode="&#xda;" horiz-adv-x="841" 
d="M106 752q26 -2 57 -2q68 0 92 4q-10 -70 -10 -291v-133q0 -88 17 -135t52 -77q49 -42 134 -42q81 0 125 45q37 35 48.5 85.5t11.5 149.5v107q0 207 -13 289q26 -2 54 -2q53 0 69 4q-12 -70 -12 -291v-108q0 -71 -5 -117.5t-28 -100.5t-66 -90q-74 -64 -205 -64
q-147 0 -221 67q-42 37 -64.5 95t-22.5 159v159q0 231 -13 289zM356 849l181 157q32 -43 68 -77q-22 -10 -215 -123z" />
    <glyph glyph-name="Ucircumflex" unicode="&#xdb;" horiz-adv-x="841" 
d="M106 752q26 -2 57 -2q68 0 92 4q-10 -70 -10 -291v-133q0 -88 17 -135t52 -77q49 -42 134 -42q81 0 125 45q37 35 48.5 85.5t11.5 149.5v107q0 207 -13 289q26 -2 54 -2q53 0 69 4q-12 -70 -12 -291v-108q0 -71 -5 -117.5t-28 -100.5t-66 -90q-74 -64 -205 -64
q-147 0 -221 67q-42 37 -64.5 95t-22.5 159v159q0 231 -13 289zM420 988h20q29 -27 82.5 -69t81.5 -60l-35 -47q-118 68 -143 83q-58 -36 -141 -83l-31 47q123 87 166 129z" />
    <glyph glyph-name="Udieresis" unicode="&#xdc;" horiz-adv-x="841" 
d="M106 752q26 -2 57 -2q68 0 92 4q-10 -70 -10 -291v-133q0 -88 17 -135t52 -77q49 -42 134 -42q81 0 125 45q37 35 48.5 85.5t11.5 149.5v107q0 207 -13 289q26 -2 54 -2q53 0 69 4q-12 -70 -12 -291v-108q0 -71 -5 -117.5t-28 -100.5t-66 -90q-74 -64 -205 -64
q-147 0 -221 67q-42 37 -64.5 95t-22.5 159v159q0 231 -13 289zM536 841q-29 0 -44 16.5t-15 38.5q0 21 15 38.5t44 17.5q26 0 42.5 -14.5t16.5 -38.5q0 -27 -15.5 -42.5t-43.5 -15.5zM309 841q-29 0 -43.5 16.5t-14.5 38.5t15 38.5t44 16.5q25 0 42 -14.5t17 -38.5
q0 -26 -16 -41.5t-44 -15.5z" />
    <glyph glyph-name="Yacute" unicode="&#xdd;" horiz-adv-x="654" 
d="M262 -4q10 80 10 283q0 31 -14 54q-30 56 -83 145t-72 116q-84 126 -116 158q36 -2 70 -2q86 0 101 4q13 -35 57 -116q122 -213 136 -236q84 148 146 267q29 57 38 83q22 -2 45 -2q60 0 87 3q-25 -26 -100 -144q-35 -57 -89 -150.5t-70 -134.5q-10 -24 -10 -48
q0 -195 9 -278q-20 2 -62 2q-66 0 -83 -4zM280 843l181 157q28 -41 67 -78q-33 -14 -214 -123z" />
    <glyph glyph-name="Thorn" unicode="&#xde;" horiz-adv-x="681" 
d="M135 287v176q0 226 -10 289q14 -2 67 -2q11 0 36 1.5t39 1.5q-6 -52 -6 -146q38 2 84 2q155 0 222 -65q50 -52 50 -131q0 -109 -77.5 -167.5t-190.5 -58.5q-18 0 -26 1q-2 29 -15 68q80 -3 132.5 30.5t52.5 105.5q0 77 -51 113q-43 34 -124 34q-36 0 -52 -4q-5 -2 -5 -18
v-236q0 -201 9 -284q-20 3 -69 3q-51 0 -75 -4q9 97 9 291z" />
    <glyph glyph-name="germandbls" unicode="&#xdf;" horiz-adv-x="685" 
d="M324 314l12 52q67 17 101 42.5t34 67.5q0 96 -163 96q-38 0 -61 -5q-3 -50 -3 -173v-150q0 -207 9 -246q-18 2 -59 2q-58 0 -80 -3q8 68 8 247v150q0 198 -10 234q137 16 227 16q59 0 104.5 -9.5t72 -23.5t43 -33.5t22 -37.5t5.5 -38q0 -47 -34 -80.5t-84 -51.5
q85 -41 128 -88t43 -113q0 -75 -54.5 -129t-154.5 -54q-82 0 -137 26q11 53 9 119l1 1q21 -28 58 -46.5t73 -18.5q38 0 63 20.5t25 58.5q0 44 -43 84t-155 84z" />
    <glyph glyph-name="agrave" unicode="&#xe0;" horiz-adv-x="645" 
d="M409 175h-214q-4 0 -4 -3q-47 -120 -61 -174q-26 2 -54 2q-39 0 -72 -3q22 40 107 222l171 391q21 42 28 42q8 0 27 -42q43 -86 185 -384q99 -203 118 -228q-52 2 -62 2q-43 0 -91 -3q-33 86 -74 175q0 3 -4 3zM222 251h158q3 0 3 4l-85 197l-78 -197q-1 -4 2 -4z
M188 896l179 -151l-32 -45q-45 27 -118.5 66.5t-90.5 46.5q49 57 62 83z" />
    <glyph glyph-name="aacute" unicode="&#xe1;" horiz-adv-x="645" 
d="M409 175h-214q-4 0 -4 -3q-47 -120 -61 -174q-26 2 -54 2q-39 0 -72 -3q22 40 107 222l171 391q21 42 28 42q8 0 27 -42q43 -86 185 -384q99 -203 118 -228q-52 2 -62 2q-43 0 -91 -3q-33 86 -74 175q0 3 -4 3zM222 251h158q3 0 3 4l-85 197l-78 -197q-1 -4 2 -4z
M246 740l179 150q7 -13 27.5 -40.5t34.5 -41.5q-17 -7 -91 -47t-118 -67z" />
    <glyph glyph-name="acircumflex" unicode="&#xe2;" horiz-adv-x="645" 
d="M409 175h-214q-4 0 -4 -3q-47 -120 -61 -174q-26 2 -54 2q-39 0 -72 -3q22 40 107 222l171 391q21 42 28 42q8 0 27 -42q43 -86 185 -384q99 -203 118 -228q-52 2 -62 2q-43 0 -91 -3q-33 86 -74 175q0 3 -4 3zM222 251h158q3 0 3 4l-85 197l-78 -197q-1 -4 2 -4z
M309 861h19q63 -58 153 -119l-33 -46l-134 74l-131 -73l-29 45q113 77 155 119z" />
    <glyph glyph-name="atilde" unicode="&#xe3;" horiz-adv-x="645" 
d="M409 175h-214q-4 0 -4 -3q-47 -120 -61 -174q-26 2 -54 2q-39 0 -72 -3q22 40 107 222l171 391q21 42 28 42q8 0 27 -42q43 -86 185 -384q99 -203 118 -228q-52 2 -62 2q-43 0 -91 -3q-33 86 -74 175q0 3 -4 3zM222 251h158q3 0 3 4l-85 197l-78 -197q-1 -4 2 -4z
M388 706q-32 0 -82 22t-68 22q-45 0 -79 -46l-29 38q43 79 113 79q27 0 85 -23q45 -19 70 -19q42 0 79 46l30 -35q-44 -84 -119 -84z" />
    <glyph glyph-name="adieresis" unicode="&#xe4;" horiz-adv-x="645" 
d="M409 175h-214q-4 0 -4 -3q-47 -120 -61 -174q-26 2 -54 2q-39 0 -72 -3q22 40 107 222l171 391q21 42 28 42q8 0 27 -42q43 -86 185 -384q99 -203 118 -228q-52 2 -62 2q-43 0 -91 -3q-33 86 -74 175q0 3 -4 3zM222 251h158q3 0 3 4l-85 197l-78 -197q-1 -4 2 -4z
M431 718q-29 0 -44 16.5t-15 38.5q0 21 15 38.5t44 17.5q26 0 42.5 -14.5t16.5 -38.5q0 -26 -16 -42t-43 -16zM204 718q-29 0 -43.5 16.5t-14.5 38.5t15 38.5t44 16.5q25 0 42 -14.5t17 -38.5q0 -26 -16 -41.5t-44 -15.5z" />
    <glyph glyph-name="aring" unicode="&#xe5;" horiz-adv-x="645" 
d="M409 175h-214q-4 0 -4 -3q-47 -120 -61 -174q-26 2 -54 2q-39 0 -72 -3q22 40 107 222l171 391q21 42 28 42q8 0 27 -42q43 -86 185 -384q99 -203 118 -228q-52 2 -62 2q-43 0 -91 -3q-33 86 -74 175q0 3 -4 3zM222 251h158q3 0 3 4l-85 197l-78 -197q-1 -4 2 -4z
M315 688q-43 0 -69 23.5t-26 62.5q0 37 26 63t69 26q45 0 71 -24.5t26 -58.5q0 -45 -29.5 -68.5t-67.5 -23.5zM271 774q0 -19 12.5 -30t31.5 -11q44 0 44 44q0 18 -11.5 29.5t-32.5 11.5q-18 0 -31 -11t-13 -33z" />
    <glyph glyph-name="ae" unicode="&#xe6;" horiz-adv-x="858" 
d="M438 342v197l-2 2l-1 -2q-66 -100 -119 -199q-4 -4 2 -4h113q7 0 7 6zM-2 -3q22 27 83.5 123.5t151 242.5t139.5 224q16 30 23 54q28 -4 86 -4h228q68 0 84 5q-8 -48 -8 -103q-20 13 -86 18q-48 5 -136 5q-4 0 -4 -4v-218q0 -5 4 -5q39 -2 133 1q61 2 82 8
q-10 -56 -8 -104q-24 13 -70 17q-84 3 -138 3q-3 0 -3 -5v-32q0 -134 6 -140q6 -4 21 -6q48 -4 84 -4q106 0 152 20q-13 -37 -23 -96q-5 -3 -50 -3q-65 0 -146 3t-109 3q-56 0 -66 -2q10 103 10 223v35q0 4 -7 4h-150q-6 0 -12 -6q-8 -11 -69 -120t-74 -136q-16 2 -62 2
t-66 -3z" />
    <glyph glyph-name="ccedilla" unicode="&#xe7;" horiz-adv-x="703" 
d="M332 -73l53 63q-132 15 -219 87q-110 93 -110 251q0 146 103 233q104 91 282 91q41 0 81 -4.5t62.5 -9t50 -11t33.5 -7.5q-15 -58 -16 -118q-76 74 -221 74q-104 0 -164 -53q-75 -65 -75 -183q0 -71 28.5 -130t94 -98.5t159.5 -39.5q124 0 193 47q-11 -34 -22 -106
q-71 -27 -186 -27h-13l-37 -43q40 -7 71 -28.5t31 -61.5q0 -38 -37 -69t-125 -31q-11 0 -35 2l11 49q46 -1 70 11.5t23 34.5q0 44 -93 49z" />
    <glyph glyph-name="egrave" unicode="&#xe8;" horiz-adv-x="542" 
d="M121 244v150q0 200 -12 245q17 -2 75 -2h209q67 0 84 5q-8 -48 -8 -103q-25 13 -86 18q-60 4 -138 4q-3 0 -3 -3v-178q0 -5 3 -5q105 0 135 1q61 2 82 8q-9 -42 -9 -104q-22 13 -70 17q-44 3 -138 3q-3 0 -3 -4v-41q0 -166 6 -172q4 -4 20 -6q48 -4 86 -4q107 0 151 20
q-16 -51 -22 -96q-6 -3 -51 -3q-67 0 -144 3t-95 3q-54 0 -82 -2q10 78 10 246zM183 894l179 -151l-33 -45q-45 27 -118.5 66.5t-90.5 46.5q48 53 63 83z" />
    <glyph glyph-name="eacute" unicode="&#xe9;" horiz-adv-x="542" 
d="M121 244v150q0 200 -12 245q17 -2 75 -2h209q67 0 84 5q-8 -48 -8 -103q-25 13 -86 18q-60 4 -138 4q-3 0 -3 -3v-178q0 -5 3 -5q105 0 135 1q61 2 82 8q-9 -42 -9 -104q-22 13 -70 17q-44 3 -138 3q-3 0 -3 -4v-41q0 -166 6 -172q4 -4 20 -6q48 -4 86 -4q107 0 151 20
q-16 -51 -22 -96q-6 -3 -51 -3q-67 0 -144 3t-95 3q-54 0 -82 -2q10 78 10 246zM230 745l179 151q18 -34 62 -83q-17 -7 -90.5 -46.5t-118.5 -66.5z" />
    <glyph glyph-name="ecircumflex" unicode="&#xea;" horiz-adv-x="542" 
d="M121 244v150q0 200 -12 245q17 -2 75 -2h209q67 0 84 5q-8 -48 -8 -103q-25 13 -86 18q-60 4 -138 4q-3 0 -3 -3v-178q0 -5 3 -5q105 0 135 1q61 2 82 8q-9 -42 -9 -104q-22 13 -70 17q-44 3 -138 3q-3 0 -3 -4v-41q0 -166 6 -172q4 -4 20 -6q48 -4 86 -4q107 0 151 20
q-16 -51 -22 -96q-6 -3 -51 -3q-67 0 -144 3t-95 3q-54 0 -82 -2q10 78 10 246zM282 867h19q36 -33 153 -119l-33 -45l-133 74l-131 -74l-29 45q116 81 154 119z" />
    <glyph glyph-name="edieresis" unicode="&#xeb;" horiz-adv-x="542" 
d="M121 244v150q0 200 -12 245q17 -2 75 -2h209q67 0 84 5q-8 -48 -8 -103q-25 13 -86 18q-60 4 -138 4q-3 0 -3 -3v-178q0 -5 3 -5q105 0 135 1q61 2 82 8q-9 -42 -9 -104q-22 13 -70 17q-44 3 -138 3q-3 0 -3 -4v-41q0 -166 6 -172q4 -4 20 -6q48 -4 86 -4q107 0 151 20
q-16 -51 -22 -96q-6 -3 -51 -3q-67 0 -144 3t-95 3q-54 0 -82 -2q10 78 10 246zM408 718q-29 0 -44 16.5t-15 39.5q0 21 15 38.5t44 17.5q26 0 42.5 -15t16.5 -39q0 -27 -15.5 -42.5t-43.5 -15.5zM181 718q-29 0 -43.5 17t-14.5 39t15 38t44 16q26 0 42.5 -14t16.5 -38
q0 -27 -15.5 -42.5t-44.5 -15.5z" />
    <glyph glyph-name="igrave" unicode="&#xec;" horiz-adv-x="359" 
d="M119 244v150q0 205 -10 245q10 -2 57 -2q65 0 83 4q-8 -88 -8 -247v-150q0 -209 10 -246q-20 2 -60 2q-44 0 -80 -3q8 54 8 247zM71 898l179 -151l-32 -45q-45 27 -118.5 66.5t-90.5 46.5q49 57 62 83z" />
    <glyph glyph-name="iacute" unicode="&#xed;" horiz-adv-x="359" 
d="M119 244v150q0 205 -10 245q10 -2 57 -2q65 0 83 4q-8 -88 -8 -247v-150q0 -209 10 -246q-20 2 -60 2q-44 0 -80 -3q8 54 8 247zM119 745l179 151q7 -13 28 -40.5t35 -42.5q-17 -7 -90.5 -46.5t-118.5 -66.5z" />
    <glyph glyph-name="icircumflex" unicode="&#xee;" horiz-adv-x="359" 
d="M119 244v150q0 205 -10 245q10 -2 57 -2q65 0 83 4q-8 -88 -8 -247v-150q0 -209 10 -246q-20 2 -60 2q-44 0 -80 -3q8 54 8 247zM172 867h19q36 -33 153 -119l-33 -45l-133 74l-132 -74l-28 45q116 81 154 119z" />
    <glyph glyph-name="idieresis" unicode="&#xef;" horiz-adv-x="359" 
d="M119 244v150q0 205 -10 245q10 -2 57 -2q65 0 83 4q-8 -88 -8 -247v-150q0 -209 10 -246q-20 2 -60 2q-44 0 -80 -3q8 54 8 247zM293 728q-29 0 -44 16.5t-15 39.5q0 21 15 38.5t44 17.5q26 0 42.5 -15t16.5 -39q0 -27 -15.5 -42.5t-43.5 -15.5zM66 728q-29 0 -43.5 17
t-14.5 39t15 38t44 16q26 0 42.5 -14t16.5 -38q0 -27 -15.5 -42.5t-44.5 -15.5z" />
    <glyph glyph-name="eth" unicode="&#xf0;" horiz-adv-x="803" 
d="M131 359v36q0 190 -12 244q20 -2 61 -2q11 0 62 1.5t88 2.5q114 -1 195 -23t139 -78q84 -84 84 -217q0 -140 -95 -233q-109 -100 -288 -100q-63 0 -103 4q-92 8 -138 5q7 126 7 242v54q-78 0 -97 -1q11 38 16 67q5 0 16 -0.5t30.5 -1t34.5 -0.5zM252 296v-13
q0 -113 2 -153q0 -41 6 -47q10 -8 43 -14.5t73 -6.5q111 0 172 57q69 66 69 184q0 108 -54 176q-74 93 -235 93q-48 0 -70 -6q-4 -3 -4 -6q-2 -36 -2 -157v-45q148 0 187 3q-7 -24 -15 -67q-52 2 -172 2z" />
    <glyph glyph-name="ntilde" unicode="&#xf1;" 
d="M229 -2q-18 2 -57 2q-45 0 -66 -3q5 54 9.5 265t4.5 343q0 22 1 32t2.5 12.5t4.5 2.5q8 0 31 -22q16 -14 198 -189.5t246 -223.5q0 276 -13 423q13 -3 51 -3q54 0 70 4q-14 -92 -16 -474q0 -26 0.5 -77.5t0.5 -61.5q0 -29 -2 -37t-7 -8q-10 0 -94 74q-52 44 -197 188.5
t-182 177.5q2 -338 15 -425zM485 711q-32 0 -82.5 22t-68.5 22q-43 0 -79 -47l-28 38q43 79 113 79q31 0 85 -23q47 -19 70 -19t40 10t39 37l29 -36q-44 -83 -118 -83z" />
    <glyph glyph-name="ograve" unicode="&#xf2;" 
d="M404 -14q-71 0 -130 19.5t-98.5 52t-67 75.5t-40 88.5t-12.5 92.5q0 65 22.5 124.5t65.5 107.5t113 77t157 29q157 0 251 -91.5t94 -225.5q0 -152 -95 -250.5t-260 -98.5zM423 58q34 0 66.5 11.5t63.5 38t50 78t19 121.5q0 113 -61.5 193t-167.5 80q-90 0 -145.5 -62.5
t-55.5 -176.5q1 -119 62.5 -201t168.5 -82zM302 900l179 -151l-32 -45q-43 26 -117.5 66t-91.5 47q46 51 62 83z" />
    <glyph glyph-name="oacute" unicode="&#xf3;" 
d="M404 -14q-71 0 -130 19.5t-98.5 52t-67 75.5t-40 88.5t-12.5 92.5q0 65 22.5 124.5t65.5 107.5t113 77t157 29q157 0 251 -91.5t94 -225.5q0 -152 -95 -250.5t-260 -98.5zM423 58q34 0 66.5 11.5t63.5 38t50 78t19 121.5q0 113 -61.5 193t-167.5 80q-90 0 -145.5 -62.5
t-55.5 -176.5q1 -119 62.5 -201t168.5 -82zM327 749l179 151q7 -13 28 -40.5t35 -42.5q-17 -7 -90.5 -46.5t-118.5 -66.5z" />
    <glyph glyph-name="ocircumflex" unicode="&#xf4;" 
d="M404 -14q-71 0 -130 19.5t-98.5 52t-67 75.5t-40 88.5t-12.5 92.5q0 65 22.5 124.5t65.5 107.5t113 77t157 29q157 0 251 -91.5t94 -225.5q0 -152 -95 -250.5t-260 -98.5zM423 58q34 0 66.5 11.5t63.5 38t50 78t19 121.5q0 113 -61.5 193t-167.5 80q-90 0 -145.5 -62.5
t-55.5 -176.5q1 -119 62.5 -201t168.5 -82zM400 867h18q46 -42 154 -119l-34 -45l-133 74l-131 -74l-29 45q119 83 155 119z" />
    <glyph glyph-name="otilde" unicode="&#xf5;" 
d="M404 -14q-71 0 -130 19.5t-98.5 52t-67 75.5t-40 88.5t-12.5 92.5q0 65 22.5 124.5t65.5 107.5t113 77t157 29q157 0 251 -91.5t94 -225.5q0 -152 -95 -250.5t-260 -98.5zM423 58q34 0 66.5 11.5t63.5 38t50 78t19 121.5q0 113 -61.5 193t-167.5 80q-90 0 -145.5 -62.5
t-55.5 -176.5q1 -119 62.5 -201t168.5 -82zM477 725q-33 0 -83 22t-68 22q-44 0 -79 -47l-29 38q19 35 49 57t64 22q32 0 86 -23q47 -19 69 -19q42 0 80 47l29 -36q-44 -83 -118 -83z" />
    <glyph glyph-name="odieresis" unicode="&#xf6;" 
d="M404 -14q-71 0 -130 19.5t-98.5 52t-67 75.5t-40 88.5t-12.5 92.5q0 65 22.5 124.5t65.5 107.5t113 77t157 29q157 0 251 -91.5t94 -225.5q0 -152 -95 -250.5t-260 -98.5zM423 58q34 0 66.5 11.5t63.5 38t50 78t19 121.5q0 113 -61.5 193t-167.5 80q-90 0 -145.5 -62.5
t-55.5 -176.5q1 -119 62.5 -201t168.5 -82zM520 728q-29 0 -44 16.5t-15 39.5q0 21 15 38.5t44 17.5q26 0 42.5 -15t16.5 -39q0 -26 -15.5 -42t-43.5 -16zM293 728q-29 0 -43.5 17t-14.5 39t15 38t44 16q26 0 42.5 -14t16.5 -38q0 -27 -16 -42.5t-44 -15.5z" />
    <glyph glyph-name="divide" unicode="&#xf7;" horiz-adv-x="675" 
d="M337 452q-24 0 -38.5 14.5t-14.5 37.5q0 25 14 39.5t37 14.5q24 0 40 -14.5t16 -37.5q0 -24 -15 -39t-39 -15zM335 92q-23 0 -37 14.5t-14 37.5q0 25 14 39.5t37 14.5q24 0 40 -14.5t16 -37.5q0 -24 -15.5 -39t-40.5 -15zM582 289h-489v72h489v-72z" />
    <glyph glyph-name="oslash" unicode="&#xf8;" horiz-adv-x="806" 
d="M648 575q54 -43 82.5 -105.5t28.5 -134.5q0 -151 -95.5 -250t-260.5 -99q-110 0 -191 47q-8 -10 -28.5 -36t-31.5 -39q-22 22 -49 40q11 12 31 37t28 34q-53 48 -79.5 113t-26.5 132q0 64 22.5 123.5t65.5 108t113 77.5t157 29q103 0 184 -43l56 70q18 -17 48 -38
q-24 -30 -54 -66zM189 341q0 -107 48 -180q151 184 297 369q-60 50 -144 50q-89 0 -145 -62.5t-56 -176.5zM428 58q34 0 66 11.5t63 37.5t50 77.5t19 122.5q0 105 -51 178q-182 -225 -299 -371q62 -56 152 -56z" />
    <glyph glyph-name="ugrave" unicode="&#xf9;" horiz-adv-x="749" 
d="M93 639q24 -2 55 -2q67 0 88 4q-9 -70 -9 -247v-112q0 -74 14.5 -113t46.5 -64q42 -33 111 -33q72 0 108 35q29 28 39 71t10 127v89q0 166 -12 245q24 -2 51 -2q52 0 66 4q-11 -85 -11 -247v-91q0 -92 -16.5 -155t-71.5 -108q-65 -54 -181 -54q-134 0 -199 56
q-37 31 -56.5 80.5t-19.5 135.5v136q0 184 -13 245zM270 900l179 -151l-33 -45q-44 26 -117.5 66t-90.5 47q49 57 62 83z" />
    <glyph glyph-name="uacute" unicode="&#xfa;" horiz-adv-x="749" 
d="M93 639q24 -2 55 -2q67 0 88 4q-9 -70 -9 -247v-112q0 -74 14.5 -113t46.5 -64q42 -33 111 -33q72 0 108 35q29 28 39 71t10 127v89q0 166 -12 245q24 -2 51 -2q52 0 66 4q-11 -85 -11 -247v-91q0 -92 -16.5 -155t-71.5 -108q-65 -54 -181 -54q-134 0 -199 56
q-37 31 -56.5 80.5t-19.5 135.5v136q0 184 -13 245zM317 739l178 151q22 -38 63 -83q-17 -7 -90.5 -46.5t-118.5 -66.5z" />
    <glyph glyph-name="ucircumflex" unicode="&#xfb;" horiz-adv-x="749" 
d="M93 639q24 -2 55 -2q67 0 88 4q-9 -70 -9 -247v-112q0 -74 14.5 -113t46.5 -64q42 -33 111 -33q72 0 108 35q29 28 39 71t10 127v89q0 166 -12 245q24 -2 51 -2q52 0 66 4q-11 -85 -11 -247v-91q0 -92 -16.5 -155t-71.5 -108q-65 -54 -181 -54q-134 0 -199 56
q-37 31 -56.5 80.5t-19.5 135.5v136q0 184 -13 245zM371 873h19q49 -45 153 -119l-33 -45l-134 74l-131 -74l-29 45q113 77 155 119z" />
    <glyph glyph-name="udieresis" unicode="&#xfc;" horiz-adv-x="749" 
d="M93 639q24 -2 55 -2q67 0 88 4q-9 -70 -9 -247v-112q0 -74 14.5 -113t46.5 -64q42 -33 111 -33q72 0 108 35q29 28 39 71t10 127v89q0 166 -12 245q24 -2 51 -2q52 0 66 4q-11 -85 -11 -247v-91q0 -92 -16.5 -155t-71.5 -108q-65 -54 -181 -54q-134 0 -199 56
q-37 31 -56.5 80.5t-19.5 135.5v136q0 184 -13 245zM499 728q-29 0 -44 16.5t-15 39.5q0 21 15 38.5t44 17.5q26 0 42.5 -15t16.5 -39q0 -27 -15.5 -42.5t-43.5 -15.5zM272 728q-29 0 -43.5 17t-14.5 39t15 38t44 16q26 0 42.5 -14t16.5 -38q0 -27 -15.5 -42.5t-44.5 -15.5z
" />
    <glyph glyph-name="yacute" unicode="&#xfd;" horiz-adv-x="590" 
d="M232 -3q9 77 9 239q0 28 -13 47q-38 70 -132 215q-10 14 -27 39t-27.5 39.5t-25 32.5t-26.5 30q32 -2 67 -2q82 0 95 4q22 -50 53 -103q4 -7 30.5 -52t51 -86t31.5 -52q71 123 124 221q22 41 33 70q20 -2 42 -2q59 0 83 3q-15 -16 -90 -126q-115 -186 -139 -242
q-8 -19 -8 -38q0 -164 9 -236q-20 2 -60 2q-60 0 -80 -3zM241 739l179 151q18 -34 62 -83q-17 -7 -90.5 -47t-117.5 -66z" />
    <glyph glyph-name="thorn" unicode="&#xfe;" horiz-adv-x="612" 
d="M118 244v150q0 196 -9 245q20 -2 61 -2q56 0 75 3q-8 -45 -5 -122q24 1 72 1q138 0 198 -56q47 -45 47 -113q0 -96 -70 -145t-169 -49q-17 0 -23 1q-3 35 -15 62q68 -2 112 26t44 87q0 60 -42 90q-38 32 -107 32q-33 0 -43 -3q-4 -2 -4 -17v-195q0 -169 9 -241
q-28 2 -67 2t-72 -3q8 74 8 247z" />
    <glyph glyph-name="ydieresis" unicode="&#xff;" horiz-adv-x="590" 
d="M232 -3q9 77 9 239q0 28 -13 47q-38 70 -132 215q-10 14 -27 39t-27.5 39.5t-25 32.5t-26.5 30q32 -2 67 -2q82 0 95 4q22 -50 53 -103q4 -7 30.5 -52t51 -86t31.5 -52q71 123 124 221q22 41 33 70q20 -2 42 -2q59 0 83 3q-15 -16 -90 -126q-115 -186 -139 -242
q-8 -19 -8 -38q0 -164 9 -236q-20 2 -60 2q-60 0 -80 -3zM408 728q-29 0 -44 16.5t-15 39.5q0 21 15 38.5t44 17.5q26 0 42.5 -15t16.5 -39q0 -26 -15.5 -42t-43.5 -16zM181 728q-29 0 -43.5 17t-14.5 39t15 38t44 16q25 0 41.5 -14t16.5 -38q0 -27 -15.5 -42.5t-43.5 -15.5
z" />
    <glyph glyph-name="Amacron" unicode="&#x100;" horiz-adv-x="722" 
d="M464 220h-248q-4 0 -5 -3q-58 -157 -74 -219q-26 2 -57 2q-52 0 -74 -4q43 84 118 257l200 466q22 48 29 48q9 0 30 -48q148 -330 201 -452q96 -217 132 -269q-52 2 -65 2q-61 0 -93 -4q-31 85 -90 221q-2 3 -4 3zM243 302h190q4 0 3 4l-100 248l-95 -248q-1 -4 2 -4z
M501 840q-20 -3 -249 -3h-60l22 77q34 -4 218 -4h89q-7 -38 -20 -70z" />
    <glyph glyph-name="amacron" unicode="&#x101;" horiz-adv-x="645" 
d="M409 175h-214q-4 0 -4 -3q-47 -120 -61 -174q-26 2 -54 2q-39 0 -72 -3q22 40 107 222l171 391q21 42 28 42q8 0 27 -42q43 -86 185 -384q99 -203 118 -228q-52 2 -62 2q-43 0 -91 -3q-33 86 -74 175q0 3 -4 3zM222 251h158q3 0 3 4l-85 197l-78 -197q-1 -4 2 -4z
M467 730q-27 -4 -245 -4h-60l21 77q30 -3 219 -3h86q-8 -41 -21 -70z" />
    <glyph glyph-name="Abreve" unicode="&#x102;" horiz-adv-x="722" 
d="M464 220h-248q-4 0 -5 -3q-58 -157 -74 -219q-26 2 -57 2q-52 0 -74 -4q43 84 118 257l200 466q22 48 29 48q9 0 30 -48q148 -330 201 -452q96 -217 132 -269q-52 2 -65 2q-61 0 -93 -4q-31 85 -90 221q-2 3 -4 3zM243 302h190q4 0 3 4l-100 248l-95 -248q-1 -4 2 -4z
M165 942l37 33q62 -71 149 -71q91 0 154 71l32 -33q-63 -120 -190 -120q-61 0 -109.5 31.5t-72.5 88.5z" />
    <glyph glyph-name="abreve" unicode="&#x103;" horiz-adv-x="645" 
d="M409 175h-214q-4 0 -4 -3q-47 -120 -61 -174q-26 2 -54 2q-39 0 -72 -3q22 40 107 222l171 391q21 42 28 42q8 0 27 -42q43 -86 185 -384q99 -203 118 -228q-52 2 -62 2q-43 0 -91 -3q-33 86 -74 175q0 3 -4 3zM222 251h158q3 0 3 4l-85 197l-78 -197q-1 -4 2 -4z
M139 831l35 31q57 -68 142 -68q90 0 145 68l30 -31q-58 -114 -180 -114q-56 0 -102.5 29.5t-69.5 84.5z" />
    <glyph glyph-name="Aogonek" unicode="&#x104;" horiz-adv-x="722" 
d="M124 253l200 466q22 48 29 48q9 0 30 -48q148 -330 201 -452q96 -217 132 -269q-5 0 -15.5 0.5t-15.5 0.5q-42 -24 -68.5 -52.5t-26.5 -55.5q0 -45 55 -45q29 0 61 16l-2 -57q-34 -28 -100 -28q-48 0 -77.5 25.5t-29.5 66.5q0 71 99 130q-28 -2 -38 -3q-31 85 -90 221
q-2 3 -4 3h-248q-4 0 -5 -3q-58 -157 -74 -219q-26 2 -57 2q-52 0 -74 -4q43 84 118 257zM243 302h190q4 0 3 4l-100 248l-95 -248q-1 -4 2 -4z" />
    <glyph glyph-name="aogonek" unicode="&#x105;" horiz-adv-x="645" 
d="M111 219l171 391q21 42 28 42q8 0 27 -42q43 -86 185 -384q99 -203 118 -228q-5 0 -13 0.5t-12 0.5q-42 -23 -69 -52.5t-27 -54.5q0 -46 55 -46q30 0 62 16l-3 -57q-32 -28 -99 -28q-48 0 -78 26.5t-30 67.5q0 71 100 128q-7 0 -15.5 -0.5t-14.5 -1t-9 -0.5
q-33 86 -74 175q0 3 -4 3h-214q-4 0 -4 -3q-47 -120 -61 -174q-26 2 -54 2q-39 0 -72 -3q22 40 107 222zM222 251h158q3 0 3 4l-85 197l-78 -197q-1 -4 2 -4z" />
    <glyph glyph-name="Cacute" unicode="&#x106;" horiz-adv-x="791" 
d="M516 -17q-207 0 -331 108q-124 111 -124 295q0 168 114 274q118 107 319 107q47 0 92.5 -5t70.5 -10.5t57.5 -14t37.5 -9.5q-15 -55 -17 -127q-36 36 -102 60t-150 24q-121 0 -196 -67q-84 -76 -84 -219q0 -49 11.5 -94.5t37.5 -87.5t63 -73t93 -49.5t123 -18.5
q143 0 218 54q-16 -56 -22 -114q-32 -13 -91.5 -23t-119.5 -10zM384 857l181 157q26 -38 67 -77q-34 -16 -214 -123z" />
    <glyph glyph-name="cacute" unicode="&#x107;" horiz-adv-x="703" 
d="M459 -14q-184 0 -293 91q-110 93 -110 251q0 146 103 233q104 91 282 91q41 0 81 -4.5t62.5 -9t50 -11t33.5 -7.5q-15 -58 -16 -118q-76 74 -221 74q-104 0 -164 -53q-75 -65 -75 -183q0 -71 28.5 -130t94 -98.5t159.5 -39.5q124 0 193 47q-11 -34 -22 -106
q-71 -27 -186 -27zM328 750l179 151q18 -34 62 -83q-17 -7 -91.5 -47t-117.5 -66z" />
    <glyph glyph-name="Ccircumflex" unicode="&#x108;" horiz-adv-x="791" 
d="M516 -17q-207 0 -331 108q-124 111 -124 295q0 168 114 274q118 107 319 107q47 0 92.5 -5t70.5 -10.5t57.5 -14t37.5 -9.5q-15 -55 -17 -127q-36 36 -102 60t-150 24q-121 0 -196 -67q-84 -76 -84 -219q0 -49 11.5 -94.5t37.5 -87.5t63 -73t93 -49.5t123 -18.5
q143 0 218 54q-16 -56 -22 -114q-32 -13 -91.5 -23t-119.5 -10zM461 989h20q29 -27 82.5 -69t81.5 -60l-35 -47q-118 68 -143 83q-58 -36 -141 -83l-31 47q123 87 166 129z" />
    <glyph glyph-name="ccircumflex" unicode="&#x109;" horiz-adv-x="703" 
d="M459 -14q-184 0 -293 91q-110 93 -110 251q0 146 103 233q104 91 282 91q41 0 81 -4.5t62.5 -9t50 -11t33.5 -7.5q-15 -58 -16 -118q-76 74 -221 74q-104 0 -164 -53q-75 -65 -75 -183q0 -71 28.5 -130t94 -98.5t159.5 -39.5q124 0 193 47q-11 -34 -22 -106
q-71 -27 -186 -27zM395 870h19q42 -38 153 -120l-33 -45l-133 74l-131 -73l-29 44q122 88 154 120z" />
    <glyph glyph-name="Cdotaccent" unicode="&#x10a;" horiz-adv-x="791" 
d="M516 -17q-207 0 -331 108q-124 111 -124 295q0 168 114 274q118 107 319 107q47 0 92.5 -5t70.5 -10.5t57.5 -14t37.5 -9.5q-15 -55 -17 -127q-36 36 -102 60t-150 24q-121 0 -196 -67q-84 -76 -84 -219q0 -49 11.5 -94.5t37.5 -87.5t63 -73t93 -49.5t123 -18.5
q143 0 218 54q-16 -56 -22 -114q-32 -13 -91.5 -23t-119.5 -10zM471 836q-30 0 -47 17t-17 42q0 26 17 42.5t47 16.5q28 0 46.5 -15t18.5 -43t-18 -44t-47 -16z" />
    <glyph glyph-name="cdotaccent" unicode="&#x10b;" horiz-adv-x="703" 
d="M459 -14q-184 0 -293 91q-110 93 -110 251q0 146 103 233q104 91 282 91q41 0 81 -4.5t62.5 -9t50 -11t33.5 -7.5q-15 -58 -16 -118q-76 74 -221 74q-104 0 -164 -53q-75 -65 -75 -183q0 -71 28.5 -130t94 -98.5t159.5 -39.5q124 0 193 47q-11 -34 -22 -106
q-71 -27 -186 -27zM402 732q-29 0 -46 17t-17 42q0 26 16.5 42.5t46.5 16.5q29 0 47 -15t18 -43t-17.5 -44t-47.5 -16z" />
    <glyph glyph-name="Ccaron" unicode="&#x10c;" horiz-adv-x="791" 
d="M516 -17q-207 0 -331 108q-124 111 -124 295q0 168 114 274q118 107 319 107q47 0 92.5 -5t70.5 -10.5t57.5 -14t37.5 -9.5q-15 -55 -17 -127q-36 36 -102 60t-150 24q-121 0 -196 -67q-84 -76 -84 -219q0 -49 11.5 -94.5t37.5 -87.5t63 -73t93 -49.5t123 -18.5
q143 0 218 54q-16 -56 -22 -114q-32 -13 -91.5 -23t-119.5 -10zM476 815h-20q-28 27 -81.5 68.5t-81.5 60.5l33 47q96 -54 144 -83q113 66 141 82l31 -47q-38 -26 -92 -67t-74 -61z" />
    <glyph glyph-name="ccaron" unicode="&#x10d;" horiz-adv-x="703" 
d="M459 -14q-184 0 -293 91q-110 93 -110 251q0 146 103 233q104 91 282 91q41 0 81 -4.5t62.5 -9t50 -11t33.5 -7.5q-15 -58 -16 -118q-76 74 -221 74q-104 0 -164 -53q-75 -65 -75 -183q0 -71 28.5 -130t94 -98.5t159.5 -39.5q124 0 193 47q-11 -34 -22 -106
q-71 -27 -186 -27zM412 709h-19q-43 42 -153 120l34 45l133 -79l131 78l29 -45q-134 -98 -155 -119z" />
    <glyph glyph-name="Dcaron" unicode="&#x10e;" horiz-adv-x="890" 
d="M137 283v181q0 228 -12 288q22 -2 65 -2q11 0 65.5 1.5t96.5 2.5q128 -1 222 -26t160 -92q95 -97 95 -253q0 -168 -108 -278q-117 -117 -323 -117q-60 0 -117 5q-115 9 -152 6q8 117 8 284zM263 472v-143q0 -139 2 -187q2 -47 7 -52q11 -9 49.5 -16.5t87.5 -7.5
q128 0 200 67q84 78 84 224q0 129 -63 212q-87 111 -278 111q-55 0 -83 -8q-4 -3 -4 -7q-2 -20 -2 -193zM434 810h-20q-63 59 -164 129l34 47q17 -10 67 -38.5t77 -45.5q47 29 141 83l31 -47q-38 -26 -92 -67t-74 -61z" />
    <glyph glyph-name="dcaron" unicode="&#x10f;" horiz-adv-x="792" 
d="M120 241v154q0 185 -11 244q20 -2 60 -2q11 0 62 1.5t88 2.5q114 -1 195 -23t139 -78q84 -84 84 -217q0 -140 -95 -233q-107 -100 -287 -100q-64 0 -104 4q-92 8 -138 5q7 84 7 242zM241 403v-120q0 -113 2 -153q0 -41 6 -47q10 -8 43 -14.5t73 -6.5q111 0 172 57
q70 67 70 184q0 106 -55 176q-74 93 -235 93q-49 0 -69 -6q-5 -2 -5 -6q-2 -36 -2 -157zM385 705h-19q-39 39 -153 120l34 45l132 -79l132 78l29 -45q-129 -92 -155 -119z" />
    <glyph glyph-name="Dcroat" unicode="&#x110;" horiz-adv-x="903" 
d="M150 420v44q0 228 -12 288q22 -2 65 -2q11 0 65.5 1.5t96.5 2.5q128 -1 222 -26t160 -92q95 -97 95 -253q0 -168 -108 -278q-117 -117 -323 -117q-60 0 -117 5q-115 9 -152 6q8 117 8 284v67q-59 0 -99 -2q3 8 17 73q12 -1 82 -1zM276 351v-22q0 -139 2 -187q2 -47 7 -52
q11 -9 49.5 -16.5t87.5 -7.5q128 0 200 67q84 78 84 224q0 129 -63 212q-87 111 -278 111q-55 0 -83 -8q-4 -3 -4 -7q-2 -20 -2 -193v-53q160 0 220 2q-9 -30 -17 -73q-43 3 -203 3z" />
    <glyph glyph-name="dcroat" unicode="&#x111;" horiz-adv-x="803" 
d="M131 359v36q0 190 -12 244q20 -2 61 -2q11 0 62 1.5t88 2.5q114 -1 195 -23t139 -78q84 -84 84 -217q0 -140 -95 -233q-109 -100 -288 -100q-63 0 -103 4q-92 8 -138 5q7 126 7 242v54q-78 0 -97 -1q11 38 16 67q5 0 16 -0.5t30.5 -1t34.5 -0.5zM252 296v-13
q0 -113 2 -153q0 -41 6 -47q10 -8 43 -14.5t73 -6.5q111 0 172 57q69 66 69 184q0 108 -54 176q-74 93 -235 93q-48 0 -70 -6q-4 -3 -4 -6q-2 -36 -2 -157v-45q148 0 187 3q-7 -24 -15 -67q-52 2 -172 2z" />
    <glyph glyph-name="Emacron" unicode="&#x112;" horiz-adv-x="601" 
d="M138 287v176q0 240 -13 289q17 -2 79 -2h234q73 0 92 6q-10 -50 -10 -112q-23 14 -93 20q-66 4 -160 4q-4 0 -4 -3v-222q0 -5 4 -5q121 0 154 1q71 2 91 9q-11 -59 -9 -113q-27 14 -77 18q-66 4 -159 4q-4 0 -4 -4v-55q0 -202 7 -208q5 -5 23 -7q36 -4 96 -4
q122 0 171 23q-15 -49 -24 -105q-5 -4 -56 -4q-78 0 -164 3.5t-103 3.5q-64 0 -85 -3q10 123 10 290zM475 849q-30 -3 -249 -3h-60l22 77q34 -4 218 -4h89q-7 -39 -20 -70z" />
    <glyph glyph-name="emacron" unicode="&#x113;" horiz-adv-x="542" 
d="M121 244v150q0 200 -12 245q17 -2 75 -2h209q67 0 84 5q-8 -48 -8 -103q-25 13 -86 18q-60 4 -138 4q-3 0 -3 -3v-178q0 -5 3 -5q105 0 135 1q61 2 82 8q-9 -42 -9 -104q-22 13 -70 17q-44 3 -138 3q-3 0 -3 -4v-41q0 -166 6 -172q4 -4 20 -6q48 -4 86 -4q107 0 151 20
q-16 -51 -22 -96q-6 -3 -51 -3q-67 0 -144 3t-95 3q-54 0 -82 -2q10 78 10 246zM438 737q-28 -3 -245 -3h-60l22 76q29 -3 219 -3h85q-5 -35 -21 -70z" />
    <glyph glyph-name="Ebreve" unicode="&#x114;" horiz-adv-x="601" 
d="M138 287v176q0 240 -13 289q17 -2 79 -2h234q73 0 92 6q-10 -50 -10 -112q-23 14 -93 20q-66 4 -160 4q-4 0 -4 -3v-222q0 -5 4 -5q121 0 154 1q71 2 91 9q-11 -59 -9 -113q-27 14 -77 18q-66 4 -159 4q-4 0 -4 -4v-55q0 -202 7 -208q5 -5 23 -7q36 -4 96 -4
q122 0 171 23q-15 -49 -24 -105q-5 -4 -56 -4q-78 0 -164 3.5t-103 3.5q-64 0 -85 -3q10 123 10 290zM138 944l38 32q60 -71 149 -71t153 71l32 -32q-63 -121 -190 -121q-61 0 -109.5 31.5t-72.5 89.5z" />
    <glyph glyph-name="ebreve" unicode="&#x115;" horiz-adv-x="542" 
d="M121 244v150q0 200 -12 245q17 -2 75 -2h209q67 0 84 5q-8 -48 -8 -103q-25 13 -86 18q-60 4 -138 4q-3 0 -3 -3v-178q0 -5 3 -5q105 0 135 1q61 2 82 8q-9 -42 -9 -104q-22 13 -70 17q-44 3 -138 3q-3 0 -3 -4v-41q0 -166 6 -172q4 -4 20 -6q48 -4 86 -4q107 0 151 20
q-16 -51 -22 -96q-6 -3 -51 -3q-67 0 -144 3t-95 3q-54 0 -82 -2q10 78 10 246zM110 834l35 30q56 -67 142 -67q90 0 145 67l30 -30q-59 -115 -180 -115q-56 0 -102.5 30t-69.5 85z" />
    <glyph glyph-name="Edotaccent" unicode="&#x116;" horiz-adv-x="601" 
d="M138 287v176q0 240 -13 289q17 -2 79 -2h234q73 0 92 6q-10 -50 -10 -112q-23 14 -93 20q-66 4 -160 4q-4 0 -4 -3v-222q0 -5 4 -5q121 0 154 1q71 2 91 9q-11 -59 -9 -113q-27 14 -77 18q-66 4 -159 4q-4 0 -4 -4v-55q0 -202 7 -208q5 -5 23 -7q36 -4 96 -4
q122 0 171 23q-15 -49 -24 -105q-5 -4 -56 -4q-78 0 -164 3.5t-103 3.5q-64 0 -85 -3q10 123 10 290zM325 827q-29 0 -46 17t-17 42q0 26 16.5 42.5t46.5 16.5q29 0 47 -15t18 -43t-17.5 -44t-47.5 -16z" />
    <glyph glyph-name="edotaccent" unicode="&#x117;" horiz-adv-x="542" 
d="M121 244v150q0 200 -12 245q17 -2 75 -2h209q67 0 84 5q-8 -48 -8 -103q-25 13 -86 18q-60 4 -138 4q-3 0 -3 -3v-178q0 -5 3 -5q105 0 135 1q61 2 82 8q-9 -42 -9 -104q-22 13 -70 17q-44 3 -138 3q-3 0 -3 -4v-41q0 -166 6 -172q4 -4 20 -6q48 -4 86 -4q107 0 151 20
q-16 -51 -22 -96q-6 -3 -51 -3q-67 0 -144 3t-95 3q-54 0 -82 -2q10 78 10 246zM292 712q-30 0 -47 17t-17 42q0 26 17 42.5t47 16.5q28 0 46 -14.5t18 -42.5t-17.5 -44.5t-46.5 -16.5z" />
    <glyph glyph-name="Eogonek" unicode="&#x118;" horiz-adv-x="601" 
d="M263 353v-55q0 -202 7 -208q5 -5 23 -7q36 -4 96 -4q122 0 171 23q-15 -49 -24 -105q-5 -4 -56 -4h-42q-38 -23 -62 -50t-24 -52q0 -45 55 -45q29 0 61 16l-2 -57q-34 -28 -99 -28q-49 0 -78.5 25.5t-29.5 66.5q0 71 94 126q-22 1 -71.5 3t-68.5 2q-64 0 -85 -3
q10 123 10 290v176q0 240 -13 289q17 -2 79 -2h234q73 0 92 6q-10 -50 -10 -112q-23 14 -93 20q-66 4 -160 4q-4 0 -4 -3v-222q0 -5 4 -5q121 0 154 1q71 2 91 9q-11 -59 -9 -113q-27 14 -77 18q-66 4 -159 4q-4 0 -4 -4z" />
    <glyph glyph-name="eogonek" unicode="&#x119;" horiz-adv-x="542" 
d="M242 296v-41q0 -166 6 -172q4 -4 20 -6q48 -4 86 -4q107 0 151 20q-16 -51 -22 -96q-5 -3 -33 -3q-39 -23 -64 -50.5t-25 -51.5q0 -46 55 -46q30 0 62 16l-2 -57q-34 -28 -99 -28q-48 0 -78 26.5t-30 67.5q0 67 93 124q-41 1 -95.5 3t-73.5 2q-54 0 -82 -2q10 78 10 246
v150q0 200 -12 245q17 -2 75 -2h209q67 0 84 5q-8 -48 -8 -103q-25 13 -86 18q-60 4 -138 4q-3 0 -3 -3v-178q0 -5 3 -5q105 0 135 1q61 2 82 8q-9 -42 -9 -104q-22 13 -70 17q-44 3 -138 3q-3 0 -3 -4z" />
    <glyph glyph-name="Ecaron" unicode="&#x11a;" horiz-adv-x="601" 
d="M138 287v176q0 240 -13 289q17 -2 79 -2h234q73 0 92 6q-10 -50 -10 -112q-23 14 -93 20q-66 4 -160 4q-4 0 -4 -3v-222q0 -5 4 -5q121 0 154 1q71 2 91 9q-11 -59 -9 -113q-27 14 -77 18q-66 4 -159 4q-4 0 -4 -4v-55q0 -202 7 -208q5 -5 23 -7q36 -4 96 -4
q122 0 171 23q-15 -49 -24 -105q-5 -4 -56 -4q-78 0 -164 3.5t-103 3.5q-64 0 -85 -3q10 123 10 290zM341 807h-20q-29 27 -82 68t-82 61l34 47q135 -77 144 -83q23 14 70 41.5t71 41.5l31 -47q-128 -91 -166 -129z" />
    <glyph glyph-name="ecaron" unicode="&#x11b;" horiz-adv-x="542" 
d="M121 244v150q0 200 -12 245q17 -2 75 -2h209q67 0 84 5q-8 -48 -8 -103q-25 13 -86 18q-60 4 -138 4q-3 0 -3 -3v-178q0 -5 3 -5q105 0 135 1q61 2 82 8q-9 -42 -9 -104q-22 13 -70 17q-44 3 -138 3q-3 0 -3 -4v-41q0 -166 6 -172q4 -4 20 -6q48 -4 86 -4q107 0 151 20
q-16 -51 -22 -96q-6 -3 -51 -3q-67 0 -144 3t-95 3q-54 0 -82 -2q10 78 10 246zM301 704h-19q-39 39 -153 120l34 45l133 -79l131 78l29 -45q-137 -100 -155 -119z" />
    <glyph glyph-name="Gcircumflex" unicode="&#x11c;" horiz-adv-x="863" 
d="M764 188v-74q0 -77 1 -89q-46 -18 -119.5 -30t-139.5 -12q-237 0 -356 142q-89 104 -89 256q0 114 47.5 192t118.5 122q109 72 288 72q55 0 110 -8.5t97 -18.5t46 -11q-14 -62 -14 -136q-29 33 -99.5 62t-168.5 29q-125 0 -202 -72q-81 -78 -81 -209t69 -211
q94 -123 254 -123q77 0 109 19q3 3 3 28v99q0 101 -14 157q26 -3 68 -3q19 0 79 4q-7 -56 -7 -185zM454 998h21q28 -27 81.5 -68.5t81.5 -60.5l-34 -47q-75 43 -143 83q-80 -47 -141 -82l-31 47q119 82 165 128z" />
    <glyph glyph-name="gcircumflex" unicode="&#x11d;" horiz-adv-x="769" 
d="M682 156v-54v-81q-39 -15 -104.5 -25t-125.5 -10q-217 0 -321 124q-75 87 -75 214q0 176 146 268q95 60 256 60q49 0 98 -7t85.5 -15t42.5 -9q-14 -56 -14 -126q-26 29 -88.5 54t-148.5 25q-111 0 -174 -60q-67 -65 -67 -171q0 -128 71 -202.5t206 -74.5q64 0 89 15
q2 2 2 22v77q0 93 -13 136q16 -2 66 -2q33 0 75 3q-6 -63 -6 -161zM404 873h18q36 -33 153 -119l-33 -45l-133 74l-131 -74l-29 45q119 83 155 119z" />
    <glyph glyph-name="Gbreve" unicode="&#x11e;" horiz-adv-x="863" 
d="M764 188v-74q0 -77 1 -89q-46 -18 -119.5 -30t-139.5 -12q-237 0 -356 142q-89 104 -89 256q0 114 47.5 192t118.5 122q109 72 288 72q55 0 110 -8.5t97 -18.5t46 -11q-14 -62 -14 -136q-29 33 -99.5 62t-168.5 29q-125 0 -202 -72q-81 -78 -81 -209t69 -211
q94 -123 254 -123q77 0 109 19q3 3 3 28v99q0 101 -14 157q26 -3 68 -3q19 0 79 4q-7 -56 -7 -185zM270 954l37 32q62 -71 149 -71q90 0 154 71l32 -32q-64 -121 -190 -121q-61 0 -109.5 31.5t-72.5 89.5z" />
    <glyph glyph-name="gbreve" unicode="&#x11f;" horiz-adv-x="769" 
d="M682 156v-54v-81q-39 -15 -104.5 -25t-125.5 -10q-217 0 -321 124q-75 87 -75 214q0 176 146 268q95 60 256 60q49 0 98 -7t85.5 -15t42.5 -9q-14 -56 -14 -126q-26 29 -88.5 54t-148.5 25q-111 0 -174 -60q-67 -65 -67 -171q0 -128 71 -202.5t206 -74.5q64 0 89 15
q2 2 2 22v77q0 93 -13 136q16 -2 66 -2q33 0 75 3q-6 -63 -6 -161zM235 836l36 30q55 -67 141 -67q49 0 82.5 16t63.5 51l30 -30q-60 -115 -181 -115q-56 0 -102.5 30t-69.5 85z" />
    <glyph glyph-name="Gdotaccent" unicode="&#x120;" horiz-adv-x="863" 
d="M764 188v-74q0 -77 1 -89q-46 -18 -119.5 -30t-139.5 -12q-237 0 -356 142q-89 104 -89 256q0 114 47.5 192t118.5 122q109 72 288 72q55 0 110 -8.5t97 -18.5t46 -11q-14 -62 -14 -136q-29 33 -99.5 62t-168.5 29q-125 0 -202 -72q-81 -78 -81 -209t69 -211
q94 -123 254 -123q77 0 109 19q3 3 3 28v99q0 101 -14 157q26 -3 68 -3q19 0 79 4q-7 -56 -7 -185zM465 842q-29 0 -46 17t-17 42q0 26 16.5 42.5t46.5 16.5q29 0 47 -15t18 -43t-17.5 -44t-47.5 -16z" />
    <glyph glyph-name="gdotaccent" unicode="&#x121;" horiz-adv-x="769" 
d="M682 156v-54v-81q-39 -15 -104.5 -25t-125.5 -10q-217 0 -321 124q-75 87 -75 214q0 176 146 268q95 60 256 60q49 0 98 -7t85.5 -15t42.5 -9q-14 -56 -14 -126q-26 29 -88.5 54t-148.5 25q-111 0 -174 -60q-67 -65 -67 -171q0 -128 71 -202.5t206 -74.5q64 0 89 15
q2 2 2 22v77q0 93 -13 136q16 -2 66 -2q33 0 75 3q-6 -63 -6 -161zM413 726q-29 0 -46 17t-17 42q0 26 16.5 42.5t46.5 16.5q29 0 47 -15t18 -43t-17.5 -44t-47.5 -16z" />
    <glyph glyph-name="uni0122" unicode="&#x122;" horiz-adv-x="863" 
d="M764 188v-74q0 -77 1 -89q-46 -18 -119.5 -30t-139.5 -12q-237 0 -356 142q-89 104 -89 256q0 114 47.5 192t118.5 122q109 72 288 72q55 0 110 -8.5t97 -18.5t46 -11q-14 -62 -14 -136q-29 33 -99.5 62t-168.5 29q-125 0 -202 -72q-81 -78 -81 -209t69 -211
q94 -123 254 -123q77 0 109 19q3 3 3 28v99q0 101 -14 157q26 -3 68 -3q19 0 79 4q-7 -56 -7 -185zM438 -79q35 5 105 20q0 -13 -3 -34q-8 -83 -70 -157q-3 -1 -38 -6.5t-43 -5.5q59 101 49 183z" />
    <glyph glyph-name="uni0123" unicode="&#x123;" horiz-adv-x="769" 
d="M682 156v-54v-81q-39 -15 -104.5 -25t-125.5 -10q-217 0 -321 124q-75 87 -75 214q0 176 146 268q95 60 256 60q49 0 98 -7t85.5 -15t42.5 -9q-14 -56 -14 -126q-26 29 -88.5 54t-148.5 25q-111 0 -174 -60q-67 -65 -67 -171q0 -128 71 -202.5t206 -74.5q64 0 89 15
q2 2 2 22v77q0 93 -13 136q16 -2 66 -2q33 0 75 3q-6 -63 -6 -161zM386 -84q43 6 104 20q0 -20 -2 -33q-8 -85 -71 -158q-1 0 -18.5 -3t-37 -6t-24.5 -3q59 102 49 183z" />
    <glyph glyph-name="Hcircumflex" unicode="&#x124;" horiz-adv-x="908" 
d="M138 287v176q0 222 -13 289q24 -2 62 -2q54 0 84 4q-8 -96 -8 -276v-16q0 -4 4 -4h378q4 0 4 4v16q0 198 -10 274q28 -2 63 -2q55 0 82 4q-9 -86 -9 -291v-176q0 -206 9 -289q-24 2 -63 2q-54 0 -82 -4q10 72 10 291v74q0 4 -4 4h-379q-3 0 -3 -4v-74q0 -197 10 -289
q-22 2 -57 2q-58 0 -88 -4q10 88 10 291zM445 992h21q28 -27 81.5 -68.5t81.5 -60.5l-34 -47q-75 43 -143 83q-80 -47 -141 -82l-31 47q119 82 165 128z" />
    <glyph glyph-name="hcircumflex" unicode="&#x125;" horiz-adv-x="807" 
d="M121 244v150q0 192 -12 245q22 -2 60 -2q52 0 80 4q-7 -108 -7 -233v-12q0 -5 3 -5h320q4 0 4 5v12q0 157 -9 231q26 -2 60 -2q52 0 79 4q-9 -59 -9 -247v-150q0 -174 9 -246q-22 2 -61 2q-63 0 -78 -3q9 83 9 247v57q0 4 -3 4h-321q-3 0 -3 -4v-57q0 -156 9 -246
q-20 2 -55 2q-45 0 -84 -3q9 83 9 247zM395 867h18q46 -42 154 -119l-34 -45l-133 74l-131 -74l-29 45q119 83 155 119z" />
    <glyph glyph-name="Hbar" unicode="&#x126;" horiz-adv-x="908" 
d="M138 287v176v64q-17 0 -39.5 -0.5t-35 -1t-17.5 -0.5q4 12 17 75h12.5t27 -0.5t33.5 -0.5q-3 110 -11 153q24 -2 62 -2q52 0 84 4q-3 -29 -6 -157q42 0 108 -0.5t81 -0.5q116 0 193 1q-3 118 -8 155q28 -2 63 -2q55 0 82 4q-6 -46 -7 -156l93 2q-11 -36 -16 -75
q-9 1 -79 1v-63v-176q0 -206 9 -289q-24 2 -63 2q-54 0 -82 -4q10 72 10 279v45q0 4 -4 4h-379q-3 0 -3 -4v-45q0 -185 10 -277q-22 2 -57 2q-58 0 -88 -4q10 88 10 291zM649 421v16q0 61 -1 90q-80 1 -206 1q-102 0 -178 -1q-1 -29 -1 -90v-16q0 -4 4 -4h378q4 0 4 4z" />
    <glyph glyph-name="hbar" unicode="&#x127;" horiz-adv-x="807" 
d="M121 244v150v66q-64 0 -74 -1q5 13 15 64q1 0 9.5 -0.5t21.5 -0.5h26q-3 89 -10 117q22 -2 60 -2q52 0 80 4q-2 -41 -5 -120q63 -1 157 -1q99 0 166 1q-3 78 -7 118q26 -2 60 -2q52 0 79 4q-6 -37 -7 -119h44l24 1q-8 -30 -13 -64q-1 0 -20.5 0.5t-36.5 0.5v-66v-150
q0 -174 9 -246q-22 2 -61 2q-63 0 -78 -3q9 83 9 229v45q0 4 -3 4h-321q-3 0 -3 -4v-45q0 -138 9 -228q-20 2 -55 2q-45 0 -84 -3q9 83 9 247zM569 366v12q0 57 -1 83q-69 1 -177 1q-84 0 -148 -1q-1 -26 -1 -83v-12q0 -5 3 -5h320q4 0 4 5z" />
    <glyph glyph-name="Itilde" unicode="&#x128;" horiz-adv-x="397" 
d="M136 287v176q0 245 -11 289q11 -2 60 -2q66 0 86 4q-9 -86 -9 -291v-176q0 -242 11 -289q-22 2 -62 2q-58 0 -84 -4q9 72 9 291zM272 831q-35 0 -87 23.5t-70 23.5q-41 0 -82 -50l-31 39q19 36 50.5 60t67.5 24q30 0 89 -24q49 -20 74 -20q41 0 79 48l31 -34
q-18 -36 -50.5 -63t-70.5 -27z" />
    <glyph glyph-name="itilde" unicode="&#x129;" horiz-adv-x="359" 
d="M119 244v150q0 205 -10 245q10 -2 57 -2q65 0 83 4q-8 -88 -8 -247v-150q0 -209 10 -246q-20 2 -60 2q-44 0 -80 -3q8 54 8 247zM250 717q-33 0 -83 22t-68 22q-44 0 -79 -47l-29 38q19 35 49 57t64 22q32 0 86 -23q48 -19 69 -19q42 0 80 47l29 -36q-44 -83 -118 -83z
" />
    <glyph glyph-name="Imacron" unicode="&#x12a;" horiz-adv-x="397" 
d="M136 287v176q0 245 -11 289q11 -2 60 -2q66 0 86 4q-9 -86 -9 -291v-176q0 -242 11 -289q-22 2 -62 2q-58 0 -84 -4q9 72 9 291zM342 849q-28 -3 -249 -3h-60l23 77q34 -4 218 -4h89q-14 -54 -21 -70z" />
    <glyph glyph-name="imacron" unicode="&#x12b;" horiz-adv-x="359" 
d="M119 244v150q0 205 -10 245q10 -2 57 -2q65 0 83 4q-8 -88 -8 -247v-150q0 -209 10 -246q-20 2 -60 2q-44 0 -80 -3q8 54 8 247zM322 740q-25 -4 -245 -4h-60l22 77q29 -3 219 -3h85q-9 -47 -21 -70z" />
    <glyph glyph-name="Iogonek" unicode="&#x12e;" horiz-adv-x="397" 
d="M262 463v-176q0 -242 11 -289q-2 0 -7 0.5t-8 0.5q-78 -47 -78 -104q0 -49 55 -49q30 0 62 16l-3 -56q-33 -29 -99 -29q-48 0 -78 26.5t-30 66.5q0 71 83 129q-33 -2 -43 -3q9 72 9 291v176q0 245 -11 289q11 -2 60 -2q66 0 86 4q-9 -86 -9 -291z" />
    <glyph glyph-name="iogonek" unicode="&#x12f;" horiz-adv-x="359" 
d="M241 394v-150q0 -209 10 -246q-4 0 -7 1q-78 -45 -78 -104q0 -49 54 -49q30 0 62 16l-2 -56q-35 -29 -100 -29q-48 0 -77.5 26.5t-29.5 66.5q0 74 84 129q-30 0 -46 -2q8 54 8 247v150q0 205 -10 245q10 -2 57 -2q65 0 83 4q-8 -88 -8 -247z" />
    <glyph glyph-name="Idotaccent" unicode="&#x130;" horiz-adv-x="397" 
d="M136 287v176q0 245 -11 289q11 -2 60 -2q66 0 86 4q-9 -86 -9 -291v-176q0 -242 11 -289q-22 2 -62 2q-58 0 -84 -4q9 72 9 291zM197 836q-29 0 -46 17t-17 42q0 26 16.5 42.5t46.5 16.5q29 0 47 -15t18 -43t-17.5 -44t-47.5 -16z" />
    <glyph glyph-name="dotlessi" unicode="&#x131;" horiz-adv-x="359" 
d="M119 244v150q0 205 -10 245q10 -2 57 -2q65 0 83 4q-8 -88 -8 -247v-150q0 -209 10 -246q-20 2 -60 2q-44 0 -80 -3q8 54 8 247z" />
    <glyph glyph-name="Jcircumflex" unicode="&#x134;" horiz-adv-x="405" 
d="M278 463v-257q0 -121 -5.5 -179.5t-23.5 -102.5q-53 -136 -228 -141q-2 23 -13 63q72 15 103 52q25 33 33.5 93t8.5 212v260q0 229 -14 290q20 -3 58 -3q68 0 91 5q-10 -97 -10 -292zM204 981h20q28 -27 80 -67.5t84 -62.5l-35 -47q-19 11 -68 39.5t-75 44.5
q-58 -36 -141 -83l-31 47q128 91 166 129z" />
    <glyph glyph-name="jcircumflex" unicode="&#x135;" horiz-adv-x="366" 
d="M255 394v-216q0 -105 -4 -151.5t-20 -83.5q-16 -39 -42 -66t-55.5 -39.5t-55 -17.5t-51.5 -5q-2 20 -18 58q62 14 87 46q23 28 30.5 78t7.5 179v218q0 190 -13 246q15 -3 55 -3q66 0 88 5q-9 -76 -9 -248zM190 858h19q63 -58 153 -119l-33 -46l-134 74l-131 -73l-29 45
q113 77 155 119z" />
    <glyph glyph-name="uni0136" unicode="&#x136;" horiz-adv-x="757" 
d="M521 85q-89 97 -255 304q-2 5 1 10q104 96 212 230q31 35 60 73.5t34 50.5q18 -3 44 -3q76 0 116 4q-66 -52 -137 -123q-173 -177 -207 -218q80 -104 254 -285q107 -108 149 -125q-14 -9 -75 -9q-67 0 -106.5 17t-89.5 74zM136 287v176q0 246 -11 289q22 -2 60 -2
q52 0 86 4q-9 -88 -9 -291v-176q0 -242 11 -289q-22 2 -55 2q-61 0 -91 -4q9 70 9 291zM362 -64q55 8 104 21q0 -21 -2 -34q-8 -85 -71 -158q-1 0 -18.5 -3t-37 -6t-24.5 -3q59 102 49 183z" />
    <glyph glyph-name="uni0137" unicode="&#x137;" horiz-adv-x="680" 
d="M506 640q14 -3 41 -3q40 0 112 4q-61 -45 -123 -107q-150 -150 -176 -181q72 -91 220 -243q94 -92 131 -107q-13 -9 -70 -9q-66 0 -102.5 15t-84.5 70q-57 61 -211 251q-3 6 0 9q97 88 183 196q25 27 50 60.5t30 44.5zM119 244v150q0 205 -10 245q20 -2 57 -2q51 0 83 4
q-8 -88 -8 -247v-150q0 -209 10 -246q-20 2 -53 2q-57 0 -87 -4q8 56 8 248zM306 -75q43 6 104 20q0 -20 -2 -34q-8 -84 -71 -157q-2 -1 -37 -6.5t-43 -5.5q59 101 49 183z" />
    <glyph glyph-name="kgreenlandic" unicode="&#x138;" horiz-adv-x="680" 
d="M506 640q14 -3 41 -3q40 0 112 4q-61 -45 -123 -107q-150 -150 -176 -181q72 -91 220 -243q94 -92 131 -107q-13 -9 -70 -9q-66 0 -102.5 15t-84.5 70q-57 61 -211 251q-3 6 0 9q97 88 183 196q25 27 50 60.5t30 44.5zM119 244v150q0 205 -10 245q20 -2 57 -2q51 0 83 4
q-8 -88 -8 -247v-150q0 -209 10 -246q-20 2 -53 2q-57 0 -87 -4q8 56 8 248z" />
    <glyph glyph-name="Lacute" unicode="&#x139;" horiz-adv-x="584" 
d="M139 287v176q0 230 -13 289q22 -2 63 -2q69 0 85 4q-10 -97 -10 -286v-170q0 -202 7 -208q5 -6 26 -8q31 -3 95 -3q136 0 180 23q-5 -11 -11 -31.5t-11.5 -44.5t-7.5 -29q-5 -3 -68 -3q-83 0 -167 3t-109 3q-41 0 -69 -2q10 90 10 289zM178 848l181 157q30 -44 67 -77
q-21 -10 -214 -123z" />
    <glyph glyph-name="lacute" unicode="&#x13a;" horiz-adv-x="525" 
d="M120 244v150q0 194 -11 245q20 -2 60 -2q66 0 82 4q-9 -74 -9 -243v-143q0 -167 6 -173q7 -5 23 -6q27 -3 83 -3q117 0 159 21q-5 -14 -17 -56l-11 -41q-6 -2 -61 -2q-74 0 -147 2.5t-99 2.5q-41 0 -67 -2q9 93 9 246zM125 739l179 150q17 -32 62 -82q-17 -7 -91.5 -47
t-117.5 -66z" />
    <glyph glyph-name="uni013B" unicode="&#x13b;" horiz-adv-x="584" 
d="M139 287v176q0 230 -13 289q22 -2 63 -2q69 0 85 4q-10 -97 -10 -286v-170q0 -202 7 -208q5 -6 26 -8q31 -3 95 -3q136 0 180 23q-5 -11 -11 -31.5t-11.5 -44.5t-7.5 -29q-5 -3 -68 -3q-83 0 -167 3t-109 3q-41 0 -69 -2q10 90 10 289zM290 -79q43 6 104 20q0 -20 -2 -34
q-8 -84 -71 -157q-2 -1 -37 -6.5t-43 -5.5q59 101 49 183z" />
    <glyph glyph-name="uni013C" unicode="&#x13c;" horiz-adv-x="525" 
d="M120 244v150q0 194 -11 245q20 -2 60 -2q66 0 82 4q-9 -74 -9 -243v-143q0 -167 6 -173q7 -5 23 -6q27 -3 83 -3q117 0 159 21q-5 -14 -17 -56l-11 -41q-6 -2 -61 -2q-74 0 -147 2.5t-99 2.5q-41 0 -67 -2q9 93 9 246zM257 -75q43 6 104 20q0 -20 -2 -34q-8 -82 -71 -157
q-2 -1 -37.5 -6.5t-42.5 -5.5q59 101 49 183z" />
    <glyph glyph-name="Lcaron" unicode="&#x13d;" horiz-adv-x="584" 
d="M529 489l-61 -18q-15 221 -22 276q67 2 103 12q-4 -33 -7.5 -80.5t-7 -105t-5.5 -84.5zM139 287v176q0 230 -13 289q22 -2 63 -2q69 0 85 4q-10 -97 -10 -286v-170q0 -202 7 -208q5 -6 26 -8q31 -3 95 -3q136 0 180 23q-5 -11 -11 -31.5t-11.5 -44.5t-7.5 -29
q-5 -3 -68 -3q-83 0 -167 3t-109 3q-41 0 -69 -2q10 90 10 289z" />
    <glyph glyph-name="lcaron" unicode="&#x13e;" horiz-adv-x="525" 
d="M471 376l-61 -18q-15 221 -22 276q67 2 103 12q-4 -33 -7.5 -80.5t-7 -105t-5.5 -84.5zM120 244v150q0 194 -11 245q20 -2 60 -2q66 0 82 4q-9 -74 -9 -243v-143q0 -167 6 -173q7 -5 23 -6q27 -3 83 -3q117 0 159 21q-5 -14 -17 -56l-11 -41q-6 -2 -61 -2q-74 0 -147 2.5
t-99 2.5q-41 0 -67 -2q9 93 9 246z" />
    <glyph glyph-name="Ldot" unicode="&#x13f;" horiz-adv-x="584" 
d="M139 287v176q0 230 -13 289q22 -2 63 -2q69 0 85 4q-10 -97 -10 -286v-170q0 -202 7 -208q5 -6 26 -8q31 -3 95 -3q136 0 180 23q-5 -11 -11 -31.5t-11.5 -44.5t-7.5 -29q-5 -3 -68 -3q-83 0 -167 3t-109 3q-41 0 -69 -2q10 90 10 289zM432 482q76 0 120 -23
q16 -9 16 -19q0 -25 -31 -57t-68 -52q-19 -8 -20 -8q-2 0 -2 4q0 3 5 18q9 27 9 58q0 26 -10 46t-20 28q-3 1 -2 4q1 1 3 1z" />
    <glyph glyph-name="ldot" unicode="&#x140;" horiz-adv-x="525" 
d="M120 244v150q0 194 -11 245q20 -2 60 -2q66 0 82 4q-9 -74 -9 -243v-143q0 -167 6 -173q7 -5 23 -6q27 -3 83 -3q117 0 159 21q-5 -14 -17 -56l-11 -41q-6 -2 -61 -2q-74 0 -147 2.5t-99 2.5q-41 0 -67 -2q9 93 9 246zM367 430q76 0 120 -23q16 -9 16 -19q0 -25 -31 -57
t-68 -52q-19 -8 -20 -8q-2 0 -2 4q0 3 5 18q9 27 9 58q0 26 -10 46t-20 28q-3 1 -2 4q1 1 3 1z" />
    <glyph glyph-name="Lslash" unicode="&#x141;" horiz-adv-x="598" 
d="M277 348v-50q0 -202 7 -208q5 -6 26 -8q32 -3 95 -3q136 0 180 23q-5 -11 -11 -31.5t-11.5 -44.5t-7.5 -29q-5 -3 -68 -3q-83 0 -167 3t-109 3q-41 0 -69 -2q10 90 10 288l-98 -48q3 16 3 82l95 47v96q0 230 -13 289q22 -2 63 -2q69 0 85 4q-10 -97 -10 -286v-39l170 85
q-3 -16 -3 -84z" />
    <glyph glyph-name="lslash" unicode="&#x142;" horiz-adv-x="541" 
d="M258 296v-41q0 -167 6 -173q7 -5 23 -6q27 -3 83 -3q117 0 159 21q-8 -19 -27 -97q-6 -2 -62 -2q-74 0 -147 2.5t-99 2.5q-41 0 -67 -2q9 67 9 239l-86 -41q3 16 3 77l83 40v81q0 194 -11 245q20 -2 60 -2q66 0 82 4q-9 -74 -9 -243v-26l149 72q-4 -22 -4 -79z" />
    <glyph glyph-name="Nacute" unicode="&#x143;" horiz-adv-x="920" 
d="M249 -2q-19 2 -59 2q-52 0 -70 -4q7 61 11.5 306t4.5 409q0 56 9 56q7 0 34 -26q33 -32 240.5 -244t268.5 -264q-4 399 -14 519q20 -2 54 -2q56 0 72 4q-6 -49 -11 -211t-4 -337v-147q0 -79 -10 -79q-9 0 -101 87q-50 47 -213 219t-228 235q4 -432 16 -523zM382 836
l181 157q36 -49 68 -77q-22 -10 -215 -123z" />
    <glyph glyph-name="nacute" unicode="&#x144;" 
d="M229 -2q-18 2 -57 2q-45 0 -66 -3q5 54 9.5 265t4.5 343q0 22 1 32t2.5 12.5t4.5 2.5q8 0 31 -22q16 -14 198 -189.5t246 -223.5q0 276 -13 423q13 -3 51 -3q54 0 70 4q-14 -92 -16 -474q0 -26 0.5 -77.5t0.5 -61.5q0 -29 -2 -37t-7 -8q-10 0 -94 74q-52 44 -197 188.5
t-182 177.5q2 -338 15 -425zM340 725l179 151q18 -34 62 -83q-17 -7 -91.5 -47t-117.5 -66z" />
    <glyph glyph-name="uni0145" unicode="&#x145;" horiz-adv-x="920" 
d="M249 -2q-19 2 -59 2q-52 0 -70 -4q7 61 11.5 306t4.5 409q0 56 9 56q7 0 34 -26q33 -32 240.5 -244t268.5 -264q-4 399 -14 519q20 -2 54 -2q56 0 72 4q-6 -49 -11 -211t-4 -337v-147q0 -79 -10 -79q-9 0 -101 87q-50 47 -213 219t-228 235q4 -432 16 -523zM412 -75
q35 5 105 20q0 -13 -3 -34q-8 -83 -70 -157q-3 -1 -38 -6.5t-43 -5.5q59 101 49 183z" />
    <glyph glyph-name="uni0146" unicode="&#x146;" 
d="M229 -2q-18 2 -57 2q-45 0 -66 -3q5 54 9.5 265t4.5 343q0 22 1 32t2.5 12.5t4.5 2.5q8 0 31 -22q16 -14 198 -189.5t246 -223.5q0 276 -13 423q13 -3 51 -3q54 0 70 4q-14 -92 -16 -474q0 -26 0.5 -77.5t0.5 -61.5q0 -29 -2 -37t-7 -8q-10 0 -94 74q-52 44 -197 188.5
t-182 177.5q2 -338 15 -425zM360 -75q39 6 105 20q0 -13 -3 -34q-8 -83 -70 -157q-3 -1 -38 -6.5t-43 -5.5q59 101 49 183z" />
    <glyph glyph-name="Ncaron" unicode="&#x147;" horiz-adv-x="920" 
d="M249 -2q-19 2 -59 2q-52 0 -70 -4q7 61 11.5 306t4.5 409q0 56 9 56q7 0 34 -26q33 -32 240.5 -244t268.5 -264q-4 399 -14 519q20 -2 54 -2q56 0 72 4q-6 -49 -11 -211t-4 -337v-147q0 -79 -10 -79q-9 0 -101 87q-50 47 -213 219t-228 235q4 -432 16 -523zM464 788h-19
q-29 27 -82.5 69t-81.5 60l33 47q96 -54 144 -83q24 14 71 41.5t71 41.5l30 -47q-123 -87 -166 -129z" />
    <glyph glyph-name="ncaron" unicode="&#x148;" 
d="M229 -2q-18 2 -57 2q-45 0 -66 -3q5 54 9.5 265t4.5 343q0 22 1 32t2.5 12.5t4.5 2.5q8 0 31 -22q16 -14 198 -189.5t246 -223.5q0 276 -13 423q13 -3 51 -3q54 0 70 4q-14 -92 -16 -474q0 -26 0.5 -77.5t0.5 -61.5q0 -29 -2 -37t-7 -8q-10 0 -94 74q-52 44 -197 188.5
t-182 177.5q2 -338 15 -425zM420 682h-19q-39 39 -153 120l34 45l132 -79l131 78l30 -45q-129 -92 -155 -119z" />
    <glyph glyph-name="Omacron" unicode="&#x14c;" horiz-adv-x="915" 
d="M452 -17q-98 0 -175.5 35t-123 92t-69 123.5t-23.5 135.5q0 77 26 147t74.5 126.5t127 90.5t176.5 34q176 0 283 -107.5t107 -265.5q0 -178 -108.5 -294.5t-294.5 -116.5zM478 62q40 0 78 14.5t75 46.5t59.5 94t22.5 146q0 138 -74.5 232t-198.5 94q-106 0 -172 -77.5
t-65 -212.5q0 -147 74 -242t201 -95zM601 858q-19 -3 -249 -3h-60l22 77q36 -4 219 -4h89q-12 -51 -21 -70z" />
    <glyph glyph-name="omacron" unicode="&#x14d;" 
d="M404 -14q-71 0 -130 19.5t-98.5 52t-67 75.5t-40 88.5t-12.5 92.5q0 65 22.5 124.5t65.5 107.5t113 77t157 29q157 0 251 -91.5t94 -225.5q0 -152 -95 -250.5t-260 -98.5zM423 58q34 0 66.5 11.5t63.5 38t50 78t19 121.5q0 113 -61.5 193t-167.5 80q-90 0 -145.5 -62.5
t-55.5 -176.5q1 -119 62.5 -201t168.5 -82zM549 740q-27 -4 -245 -4h-60l22 77q28 -3 218 -3h86q-9 -47 -21 -70z" />
    <glyph glyph-name="Ohungarumlaut" unicode="&#x150;" horiz-adv-x="915" 
d="M452 -17q-98 0 -175.5 35t-123 92t-69 123.5t-23.5 135.5q0 77 26 147t74.5 126.5t127 90.5t176.5 34q176 0 283 -107.5t107 -265.5q0 -178 -108.5 -294.5t-294.5 -116.5zM478 62q40 0 78 14.5t75 46.5t59.5 94t22.5 146q0 138 -74.5 232t-198.5 94q-106 0 -172 -77.5
t-65 -212.5q0 -147 74 -242t201 -95zM315 839l103 171q45 -28 92 -47q-17 -13 -45.5 -40.5t-66.5 -65.5l-46 -46zM522 839l103 171q32 -22 92 -47q-13 -10 -42.5 -38.5t-65.5 -64.5t-50 -49z" />
    <glyph glyph-name="ohungarumlaut" unicode="&#x151;" 
d="M404 -14q-71 0 -130 19.5t-98.5 52t-67 75.5t-40 88.5t-12.5 92.5q0 65 22.5 124.5t65.5 107.5t113 77t157 29q157 0 251 -91.5t94 -225.5q0 -152 -95 -250.5t-260 -98.5zM423 58q34 0 66.5 11.5t63.5 38t50 78t19 121.5q0 113 -61.5 193t-167.5 80q-90 0 -145.5 -62.5
t-55.5 -176.5q1 -119 62.5 -201t168.5 -82zM261 724l86 171q35 -22 92 -47q-32 -26 -135 -146zM462 724l86 171q29 -18 92 -47q-14 -12 -39 -38.5t-56 -62t-40 -45.5z" />
    <glyph glyph-name="OE" unicode="&#x152;" horiz-adv-x="1175" 
d="M837 351v-53q0 -201 7 -208q5 -5 23 -7q35 -4 96 -4q123 0 170 23q-15 -54 -23 -105q-5 -4 -56 -4q-76 0 -165.5 3.5t-116.5 3.5q-57 0 -69 -3q4 32 5 98q-98 -111 -268 -111q-96 0 -172 34t-121 90.5t-68 123t-23 138.5q0 105 43.5 193.5t134 146t212.5 57.5
q162 0 263 -117q-1 76 -8 102q17 -2 79 -2h231q74 0 92 6q-9 -47 -9 -112q-23 14 -93 20q-66 4 -161 4q-3 0 -3 -4v-221q0 -5 4 -5q121 0 153 1q72 2 92 9q-11 -56 -9 -113q-27 14 -77 18q-66 4 -160 4q-3 0 -3 -6zM471 65q34 0 65.5 8.5t64 31t56.5 56t39 88.5t15 124
q0 150 -73 231.5t-188 81.5q-112 0 -182.5 -83t-69.5 -219q0 -140 75 -229.5t198 -89.5z" />
    <glyph glyph-name="oe" unicode="&#x153;" horiz-adv-x="1048" 
d="M749 295v-40q0 -166 6 -172q7 -4 21 -6q48 -4 85 -4q107 0 151 20q-12 -39 -22 -96q-6 -3 -50 -3q-66 0 -146.5 3t-108.5 3q-55 0 -65 -2q4 58 5 73q-85 -85 -229 -85q-86 0 -153 28.5t-106.5 76.5t-60 105t-20.5 119q0 138 91.5 237.5t252.5 99.5q138 0 226 -91
q-3 62 -8 78q16 -2 76 -2h206q67 0 84 5q-9 -40 -9 -103q-21 13 -85 18q-60 4 -138 4q-3 0 -3 -3v-178q0 -5 3 -5q105 0 134 1q62 2 83 8q-11 -52 -9 -104q-22 13 -69 17q-44 3 -139 3q-3 0 -3 -5zM425 61q36 0 69 12t64 39.5t49.5 80t18.5 124.5q0 124 -61 192t-159 68
q-94 0 -154 -67.5t-60 -182.5q0 -116 62.5 -191t170.5 -75z" />
    <glyph glyph-name="Racute" unicode="&#x154;" horiz-adv-x="748" 
d="M138 287v176q0 241 -15 289q46 -2 62 -2q7 0 67 2t83 2q127 0 187 -36q42 -25 68.5 -68.5t26.5 -98.5q0 -126 -123 -207q134 -187 195 -255q67 -74 96 -88q-23 -8 -89 -8q-43 0 -70 12t-55 40q-25 25 -60.5 73t-72.5 104t-49 72q-4 7 -12 7q-77 0 -113 1q-4 0 -4 -6v-27
q0 -190 12 -271q-26 2 -61 2q-57 0 -85 -4q12 84 12 291zM260 668v-273q0 -8 4 -11q34 -9 109 -9q40 0 55 11q65 49 65 134q0 76 -46.5 117.5t-119.5 41.5q-48 0 -63 -4q-4 -1 -4 -7zM287 856l180 157q36 -49 68 -77q-30 -13 -214 -123z" />
    <glyph glyph-name="racute" unicode="&#x155;" horiz-adv-x="671" 
d="M121 244v150q0 205 -12 245q40 -2 59 -2q5 0 59.5 2t75.5 2q114 0 169 -31q84 -46 84 -143q0 -107 -108 -174q112 -153 169 -215q55 -61 86 -77q-21 -8 -85 -8q-42 0 -65.5 9.5t-47.5 33.5q-23 21 -54 62t-63 89t-41 60q-5 6 -11 6h-93q-3 0 -3 -4v-22q0 -161 10 -229
q-24 2 -58 2q-42 0 -81 -3q10 74 10 247zM240 562v-224q0 -6 3 -8q26 -8 93 -8q34 0 47 9q54 37 54 108q0 64 -40.5 98.5t-100.5 34.5q-42 0 -53 -4q-3 -1 -3 -6zM261 749l179 151q7 -13 28 -40.5t35 -42.5q-17 -7 -90.5 -46.5t-118.5 -66.5z" />
    <glyph glyph-name="uni0156" unicode="&#x156;" horiz-adv-x="748" 
d="M138 287v176q0 241 -15 289q46 -2 62 -2q7 0 67 2t83 2q127 0 187 -36q42 -25 68.5 -68.5t26.5 -98.5q0 -126 -123 -207q134 -187 195 -255q67 -74 96 -88q-23 -8 -89 -8q-43 0 -70 12t-55 40q-25 25 -60.5 73t-72.5 104t-49 72q-4 7 -12 7q-77 0 -113 1q-4 0 -4 -6v-27
q0 -190 12 -271q-26 2 -61 2q-57 0 -85 -4q12 84 12 291zM260 668v-273q0 -8 4 -11q34 -9 109 -9q40 0 55 11q65 49 65 134q0 76 -46.5 117.5t-119.5 41.5q-48 0 -63 -4q-4 -1 -4 -7zM361 -65q43 6 104 20q0 -20 -2 -34q-8 -82 -71 -157q-2 -1 -37.5 -6.5t-42.5 -5.5
q59 101 49 183z" />
    <glyph glyph-name="uni0157" unicode="&#x157;" horiz-adv-x="671" 
d="M121 244v150q0 205 -12 245q40 -2 59 -2q5 0 59.5 2t75.5 2q114 0 169 -31q84 -46 84 -143q0 -107 -108 -174q112 -153 169 -215q55 -61 86 -77q-21 -8 -85 -8q-42 0 -65.5 9.5t-47.5 33.5q-23 21 -54 62t-63 89t-41 60q-5 6 -11 6h-93q-3 0 -3 -4v-22q0 -161 10 -229
q-24 2 -58 2q-42 0 -81 -3q10 74 10 247zM240 562v-224q0 -6 3 -8q26 -8 93 -8q34 0 47 9q54 37 54 108q0 64 -40.5 98.5t-100.5 34.5q-42 0 -53 -4q-3 -1 -3 -6zM311 -75q35 5 105 20q0 -13 -3 -34q-8 -83 -70 -157q-3 -1 -38 -6.5t-43 -5.5q59 101 49 183z" />
    <glyph glyph-name="Rcaron" unicode="&#x158;" horiz-adv-x="748" 
d="M138 287v176q0 241 -15 289q46 -2 62 -2q7 0 67 2t83 2q127 0 187 -36q42 -25 68.5 -68.5t26.5 -98.5q0 -126 -123 -207q134 -187 195 -255q67 -74 96 -88q-23 -8 -89 -8q-43 0 -70 12t-55 40q-25 25 -60.5 73t-72.5 104t-49 72q-4 7 -12 7q-77 0 -113 1q-4 0 -4 -6v-27
q0 -190 12 -271q-26 2 -61 2q-57 0 -85 -4q12 84 12 291zM260 668v-273q0 -8 4 -11q34 -9 109 -9q40 0 55 11q65 49 65 134q0 76 -46.5 117.5t-119.5 41.5q-48 0 -63 -4q-4 -1 -4 -7zM353 811h-20q-29 27 -82 68t-82 61l34 47q135 -77 144 -83q23 14 70 41.5t71 41.5l31 -47
q-128 -91 -166 -129z" />
    <glyph glyph-name="rcaron" unicode="&#x159;" horiz-adv-x="671" 
d="M121 244v150q0 205 -12 245q40 -2 59 -2q5 0 59.5 2t75.5 2q114 0 169 -31q84 -46 84 -143q0 -107 -108 -174q112 -153 169 -215q55 -61 86 -77q-21 -8 -85 -8q-42 0 -65.5 9.5t-47.5 33.5q-23 21 -54 62t-63 89t-41 60q-5 6 -11 6h-93q-3 0 -3 -4v-22q0 -161 10 -229
q-24 2 -58 2q-42 0 -81 -3q10 74 10 247zM240 562v-224q0 -6 3 -8q26 -8 93 -8q34 0 47 9q54 37 54 108q0 64 -40.5 98.5t-100.5 34.5q-42 0 -53 -4q-3 -1 -3 -6zM330 704h-18q-43 42 -153 119l34 46l132 -79l131 78l30 -45q-141 -104 -156 -119z" />
    <glyph glyph-name="Sacute" unicode="&#x15a;" horiz-adv-x="536" 
d="M47 26q12 51 10 133q27 -36 76.5 -63t105.5 -27q59 0 89.5 30.5t30.5 78.5q0 39 -20 69t-78 68l-50 33q-78 50 -107.5 101.5t-29.5 112.5q0 87 63 146t170 59q43 0 101 -9q51 -9 63 -9q-9 -33 -9 -130q-57 66 -157 66q-50 0 -80.5 -27.5t-30.5 -68.5q0 -38 17.5 -65.5
t72.5 -64.5l49 -32q89 -59 121.5 -108t32.5 -113q0 -47 -23.5 -97.5t-73.5 -82.5q-67 -43 -161 -43q-51 0 -103 12t-79 31zM211 863l181 157q28 -41 67 -78q-42 -17 -214 -123z" />
    <glyph glyph-name="sacute" unicode="&#x15b;" horiz-adv-x="483" 
d="M42 22q11 44 9 123q27 -32 70.5 -55.5t92.5 -23.5q50 0 76 23.5t26 61.5q0 31 -17 55t-66 55l-45 28q-69 43 -95.5 87.5t-26.5 97.5q0 75 57 126.5t153 51.5q52 0 92 -7q50 -8 57 -8q-9 -30 -9 -120q-49 58 -141 58q-43 0 -68 -21.5t-25 -55.5q0 -29 14.5 -51.5
t59.5 -51.5l45 -28q80 -50 109 -92t29 -98q0 -41 -22 -84.5t-66 -70.5q-57 -36 -146 -36q-45 0 -91.5 10t-71.5 26zM180 749l179 151q18 -34 62 -83q-17 -7 -91.5 -47t-117.5 -66z" />
    <glyph glyph-name="Scircumflex" unicode="&#x15c;" horiz-adv-x="536" 
d="M47 26q12 51 10 133q27 -36 76.5 -63t105.5 -27q59 0 89.5 30.5t30.5 78.5q0 39 -20 69t-78 68l-50 33q-78 50 -107.5 101.5t-29.5 112.5q0 87 63 146t170 59q43 0 101 -9q51 -9 63 -9q-9 -33 -9 -130q-57 66 -157 66q-50 0 -80.5 -27.5t-30.5 -68.5q0 -38 17.5 -65.5
t72.5 -64.5l49 -32q89 -59 121.5 -108t32.5 -113q0 -47 -23.5 -97.5t-73.5 -82.5q-67 -43 -161 -43q-51 0 -103 12t-79 31zM274 989h20q29 -27 82.5 -69t81.5 -60l-35 -47q-118 68 -143 83q-58 -36 -141 -83l-31 47q123 87 166 129z" />
    <glyph glyph-name="scircumflex" unicode="&#x15d;" horiz-adv-x="483" 
d="M42 22q11 44 9 123q27 -32 70.5 -55.5t92.5 -23.5q50 0 76 23.5t26 61.5q0 31 -17 55t-66 55l-45 28q-69 43 -95.5 87.5t-26.5 97.5q0 75 57 126.5t153 51.5q52 0 92 -7q50 -8 57 -8q-9 -30 -9 -120q-49 58 -141 58q-43 0 -68 -21.5t-25 -55.5q0 -29 14.5 -51.5
t59.5 -51.5l45 -28q80 -50 109 -92t29 -98q0 -41 -22 -84.5t-66 -70.5q-57 -36 -146 -36q-45 0 -91.5 10t-71.5 26zM244 867h19q36 -33 153 -119l-33 -45l-133 74l-131 -74l-29 45q116 81 154 119z" />
    <glyph glyph-name="uni015E" unicode="&#x15e;" horiz-adv-x="536" 
d="M284 459l49 -32q89 -59 121.5 -108t32.5 -113q0 -47 -23.5 -97.5t-73.5 -82.5q-38 -25 -96 -37l-42 -44q45 -6 77.5 -28.5t32.5 -64.5q0 -39 -37 -70.5t-125 -31.5q-14 0 -38 2l11 49q95 -1 95 49q0 46 -92 49v29l48 55q-50 1 -100.5 13t-76.5 30q12 51 10 133
q27 -36 76.5 -63t105.5 -27q59 0 89.5 30.5t30.5 78.5q0 39 -20 69t-78 68l-50 33q-78 50 -107.5 101.5t-29.5 112.5q0 87 63 146t170 59q43 0 101 -9q51 -9 63 -9q-9 -33 -9 -130q-57 66 -157 66q-50 0 -80.5 -27.5t-30.5 -68.5q0 -38 17.5 -65.5t72.5 -64.5z" />
    <glyph glyph-name="uni015F" unicode="&#x15f;" horiz-adv-x="483" 
d="M256 395l45 -28q80 -50 109 -92t29 -98q0 -41 -22 -84.5t-66 -70.5q-31 -19 -73 -29l-43 -50q40 -7 71 -28.5t31 -61.5q0 -38 -37 -69t-125 -31q-11 0 -35 2l11 49q46 -1 70 11.5t23 34.5q0 44 -93 49l7 28l50 59h-3q-45 0 -91.5 10t-71.5 26q11 44 9 123
q27 -32 70.5 -55.5t92.5 -23.5q50 0 76 23.5t26 61.5q0 31 -17 55t-66 55l-45 28q-69 43 -95.5 87.5t-26.5 97.5q0 75 57 126.5t153 51.5q52 0 92 -7q50 -8 57 -8q-9 -30 -9 -120q-49 58 -141 58q-43 0 -68 -21.5t-25 -55.5q0 -29 14.5 -51.5t59.5 -51.5z" />
    <glyph glyph-name="Scaron" unicode="&#x160;" horiz-adv-x="536" 
d="M47 26q12 51 10 133q27 -36 76.5 -63t105.5 -27q59 0 89.5 30.5t30.5 78.5q0 39 -20 69t-78 68l-50 33q-78 50 -107.5 101.5t-29.5 112.5q0 87 63 146t170 59q43 0 101 -9q51 -9 63 -9q-9 -33 -9 -130q-57 66 -157 66q-50 0 -80.5 -27.5t-30.5 -68.5q0 -38 17.5 -65.5
t72.5 -64.5l49 -32q89 -59 121.5 -108t32.5 -113q0 -47 -23.5 -97.5t-73.5 -82.5q-67 -43 -161 -43q-51 0 -103 12t-79 31zM298 820h-20q-28 27 -80 67.5t-84 62.5l34 47q17 -10 67 -38.5t77 -45.5q94 56 141 83l31 -47q-128 -91 -166 -129z" />
    <glyph glyph-name="scaron" unicode="&#x161;" horiz-adv-x="483" 
d="M42 22q11 44 9 123q27 -32 70.5 -55.5t92.5 -23.5q50 0 76 23.5t26 61.5q0 31 -17 55t-66 55l-45 28q-69 43 -95.5 87.5t-26.5 97.5q0 75 57 126.5t153 51.5q52 0 92 -7q50 -8 57 -8q-9 -30 -9 -120q-49 58 -141 58q-43 0 -68 -21.5t-25 -55.5q0 -29 14.5 -51.5
t59.5 -51.5l45 -28q80 -50 109 -92t29 -98q0 -41 -22 -84.5t-66 -70.5q-57 -36 -146 -36q-45 0 -91.5 10t-71.5 26zM262 708h-19q-52 50 -153 119l34 46l133 -79l131 78l29 -45q-10 -7 -49 -36t-66.5 -50t-39.5 -33z" />
    <glyph glyph-name="uni0162" unicode="&#x162;" horiz-adv-x="680" 
d="M2 647q13 44 20 113q39 -10 161 -10h333q128 0 160 9q-11 -49 -13 -119q-27 18 -111 24q-48 4 -154 4v-381q0 -203 10 -289q-26 2 -57 2q-57 0 -88 -4q9 72 9 291v381q-90 0 -133 -2q-99 -5 -137 -19zM314 -1h64l-50 -54q45 -6 77.5 -29t32.5 -64q0 -39 -37.5 -70.5
t-125.5 -31.5q-13 0 -37 2l11 49q95 -1 95 49q0 46 -93 49v29z" />
    <glyph glyph-name="uni0163" unicode="&#x163;" horiz-adv-x="612" 
d="M3 542q12 37 19 105q36 -10 145 -10h296q113 0 143 8q-10 -48 -12 -110q-25 16 -98 22q-70 4 -134 4v-315q2 -186 10 -248q-24 2 -55 2q-37 0 -85 -3q9 61 9 247v317q-60 0 -116 -2q-84 -4 -122 -17zM282 -4h64l-45 -53q41 -7 72 -28.5t31 -61.5q0 -38 -37.5 -69
t-125.5 -31q-10 0 -34 2l11 49q45 -1 69 11.5t24 34.5q-2 44 -94 49l8 28z" />
    <glyph glyph-name="Tcaron" unicode="&#x164;" horiz-adv-x="680" 
d="M2 647q13 44 20 113q39 -10 161 -10h333q128 0 160 9q-11 -49 -13 -119q-27 18 -111 24q-48 4 -154 4v-381q0 -203 10 -289q-26 2 -57 2q-57 0 -88 -4q9 72 9 291v381q-90 0 -133 -2q-99 -5 -137 -19zM348 811h-20q-29 27 -82 68t-82 61l34 47q135 -77 144 -83
q60 36 141 83l30 -47q-125 -89 -165 -129z" />
    <glyph glyph-name="tcaron" unicode="&#x165;" horiz-adv-x="612" 
d="M3 542q12 37 19 105q36 -10 145 -10h296q113 0 143 8q-10 -48 -12 -110q-25 16 -98 22q-70 4 -134 4v-315q2 -186 10 -248q-24 2 -55 2q-37 0 -85 -3q9 61 9 247v317q-60 0 -116 -2q-84 -4 -122 -17zM308 698h-18q-54 51 -154 119l34 46l133 -79l131 78l29 -45
q-10 -7 -49 -36t-66.5 -50t-39.5 -33z" />
    <glyph glyph-name="Utilde" unicode="&#x168;" horiz-adv-x="841" 
d="M106 752q26 -2 57 -2q68 0 92 4q-10 -70 -10 -291v-133q0 -88 17 -135t52 -77q49 -42 134 -42q81 0 125 45q37 35 48.5 85.5t11.5 149.5v107q0 207 -13 289q26 -2 54 -2q53 0 69 4q-12 -70 -12 -291v-108q0 -71 -5 -117.5t-28 -100.5t-66 -90q-74 -64 -205 -64
q-147 0 -221 67q-42 37 -64.5 95t-22.5 159v159q0 231 -13 289zM505 831q-35 0 -87 23.5t-70 23.5q-40 0 -82 -50l-31 39q19 36 50.5 60t67.5 24q30 0 89 -24q51 -20 74 -20q41 0 79 48l31 -34q-18 -36 -50.5 -63t-70.5 -27z" />
    <glyph glyph-name="utilde" unicode="&#x169;" horiz-adv-x="749" 
d="M93 639q24 -2 55 -2q67 0 88 4q-9 -70 -9 -247v-112q0 -74 14.5 -113t46.5 -64q42 -33 111 -33q72 0 108 35q29 28 39 71t10 127v89q0 166 -12 245q24 -2 51 -2q52 0 66 4q-11 -85 -11 -247v-91q0 -92 -16.5 -155t-71.5 -108q-65 -54 -181 -54q-134 0 -199 56
q-37 31 -56.5 80.5t-19.5 135.5v136q0 184 -13 245zM453 717q-33 0 -83 22t-68 22q-44 0 -79 -47l-29 38q19 35 49 57t64 22q32 0 86 -23q48 -19 69 -19q42 0 80 47l29 -36q-44 -83 -118 -83z" />
    <glyph glyph-name="Umacron" unicode="&#x16a;" horiz-adv-x="841" 
d="M106 752q26 -2 57 -2q68 0 92 4q-10 -70 -10 -291v-133q0 -88 17 -135t52 -77q49 -42 134 -42q81 0 125 45q37 35 48.5 85.5t11.5 149.5v107q0 207 -13 289q26 -2 54 -2q53 0 69 4q-12 -70 -12 -291v-108q0 -71 -5 -117.5t-28 -100.5t-66 -90q-74 -64 -205 -64
q-147 0 -221 67q-42 37 -64.5 95t-22.5 159v159q0 231 -13 289zM576 849q-28 -3 -249 -3h-60l23 77q34 -4 218 -4h89q-14 -54 -21 -70z" />
    <glyph glyph-name="umacron" unicode="&#x16b;" horiz-adv-x="749" 
d="M93 639q24 -2 55 -2q67 0 88 4q-9 -70 -9 -247v-112q0 -74 14.5 -113t46.5 -64q42 -33 111 -33q72 0 108 35q29 28 39 71t10 127v89q0 166 -12 245q24 -2 51 -2q52 0 66 4q-11 -85 -11 -247v-91q0 -92 -16.5 -155t-71.5 -108q-65 -54 -181 -54q-134 0 -199 56
q-37 31 -56.5 80.5t-19.5 135.5v136q0 184 -13 245zM519 740q-27 -4 -245 -4h-60l21 77q30 -3 219 -3h86q-8 -41 -21 -70z" />
    <glyph glyph-name="Ubreve" unicode="&#x16c;" horiz-adv-x="841" 
d="M106 752q26 -2 57 -2q68 0 92 4q-10 -70 -10 -291v-133q0 -88 17 -135t52 -77q49 -42 134 -42q81 0 125 45q37 35 48.5 85.5t11.5 149.5v107q0 207 -13 289q26 -2 54 -2q53 0 69 4q-12 -70 -12 -291v-108q0 -71 -5 -117.5t-28 -100.5t-66 -90q-74 -64 -205 -64
q-147 0 -221 67q-42 37 -64.5 95t-22.5 159v159q0 231 -13 289zM239 940l38 32q62 -71 149 -71q90 0 154 71l32 -32q-65 -121 -190 -121q-61 0 -109.5 31.5t-73.5 89.5z" />
    <glyph glyph-name="ubreve" unicode="&#x16d;" horiz-adv-x="749" 
d="M93 639q24 -2 55 -2q67 0 88 4q-9 -70 -9 -247v-112q0 -74 14.5 -113t46.5 -64q42 -33 111 -33q72 0 108 35q29 28 39 71t10 127v89q0 166 -12 245q24 -2 51 -2q52 0 66 4q-11 -85 -11 -247v-91q0 -92 -16.5 -155t-71.5 -108q-65 -54 -181 -54q-134 0 -199 56
q-37 31 -56.5 80.5t-19.5 135.5v136q0 184 -13 245zM203 830l36 30q55 -67 141 -67q49 0 82.5 16t63.5 51l30 -30q-60 -115 -181 -115q-56 0 -102.5 30t-69.5 85z" />
    <glyph glyph-name="Uring" unicode="&#x16e;" horiz-adv-x="841" 
d="M106 752q26 -2 57 -2q68 0 92 4q-10 -70 -10 -291v-133q0 -88 17 -135t52 -77q49 -42 134 -42q81 0 125 45q37 35 48.5 85.5t11.5 149.5v107q0 207 -13 289q26 -2 54 -2q53 0 69 4q-12 -70 -12 -291v-108q0 -71 -5 -117.5t-28 -100.5t-66 -90q-74 -64 -205 -64
q-147 0 -221 67q-42 37 -64.5 95t-22.5 159v159q0 231 -13 289zM434 803q-44 0 -70 23.5t-26 62.5q0 37 26 62.5t70 25.5q45 0 70.5 -24.5t25.5 -58.5q0 -44 -29 -67.5t-67 -23.5zM390 889q0 -20 12.5 -30.5t31.5 -10.5q44 0 44 44q0 17 -11.5 29t-32.5 12q-18 0 -31 -11
t-13 -33z" />
    <glyph glyph-name="uring" unicode="&#x16f;" horiz-adv-x="749" 
d="M93 639q24 -2 55 -2q67 0 88 4q-9 -70 -9 -247v-112q0 -74 14.5 -113t46.5 -64q42 -33 111 -33q72 0 108 35q29 28 39 71t10 127v89q0 166 -12 245q24 -2 51 -2q52 0 66 4q-11 -85 -11 -247v-91q0 -92 -16.5 -155t-71.5 -108q-65 -54 -181 -54q-134 0 -199 56
q-37 31 -56.5 80.5t-19.5 135.5v136q0 184 -13 245zM383 686q-44 0 -69.5 23t-25.5 63q0 37 26 62.5t69 25.5q45 0 70.5 -24.5t25.5 -58.5q0 -45 -29 -68t-67 -23zM339 772q0 -20 12.5 -30.5t31.5 -10.5q44 0 44 44q0 18 -11.5 29.5t-32.5 11.5q-18 0 -31 -11t-13 -33z" />
    <glyph glyph-name="Uhungarumlaut" unicode="&#x170;" horiz-adv-x="841" 
d="M106 752q26 -2 57 -2q68 0 92 4q-10 -70 -10 -291v-133q0 -88 17 -135t52 -77q49 -42 134 -42q81 0 125 45q37 35 48.5 85.5t11.5 149.5v107q0 207 -13 289q26 -2 54 -2q53 0 69 4q-12 -70 -12 -291v-108q0 -71 -5 -117.5t-28 -100.5t-66 -90q-74 -64 -205 -64
q-147 0 -221 67q-42 37 -64.5 95t-22.5 159v159q0 231 -13 289zM272 839l103 171q45 -28 92 -47q-17 -13 -45.5 -40.5t-66.5 -65.5l-46 -46zM479 839l103 171q32 -22 92 -47q-17 -13 -80.5 -76t-77.5 -76z" />
    <glyph glyph-name="uhungarumlaut" unicode="&#x171;" horiz-adv-x="749" 
d="M93 639q24 -2 55 -2q67 0 88 4q-9 -70 -9 -247v-112q0 -74 14.5 -113t46.5 -64q42 -33 111 -33q72 0 108 35q29 28 39 71t10 127v89q0 166 -12 245q24 -2 51 -2q52 0 66 4q-11 -85 -11 -247v-91q0 -92 -16.5 -155t-71.5 -108q-65 -54 -181 -54q-134 0 -199 56
q-37 31 -56.5 80.5t-19.5 135.5v136q0 184 -13 245zM229 724l86 171q25 -17 91 -47q-22 -19 -135 -146zM430 724l86 171q18 -12 91 -47q-14 -11 -39 -38.5t-54.5 -61t-41.5 -46.5z" />
    <glyph glyph-name="Uogonek" unicode="&#x172;" horiz-adv-x="841" 
d="M633 356v107q0 207 -13 289q26 -2 54 -2q53 0 69 4q-12 -70 -12 -291v-108q0 -71 -5 -117.5t-28 -100.5t-66 -90q-22 -19 -55 -35q-91 -56 -91 -110q0 -22 14 -35t41 -13q29 0 61 16l-2 -57q-34 -28 -99 -28q-49 0 -78.5 24.5t-29.5 65.5q0 54 64 109q-10 -1 -30 -1
q-147 0 -221 67q-42 37 -64.5 95t-22.5 159v159q0 231 -13 289q26 -2 57 -2q68 0 92 4q-10 -70 -10 -291v-133q0 -88 17 -135t52 -77q49 -42 134 -42q81 0 125 45q37 35 48.5 85.5t11.5 149.5z" />
    <glyph glyph-name="uogonek" unicode="&#x173;" horiz-adv-x="749" 
d="M556 305v89q0 166 -12 245q24 -2 51 -2q52 0 66 4q-11 -85 -11 -247v-91q0 -92 -16.5 -155t-71.5 -108q-26 -22 -58 -34q-84 -52 -84 -99q0 -46 55 -46q33 0 62 16l-2 -57q-34 -28 -99 -28q-48 0 -78 26.5t-30 66.5q0 53 59 101h-6q-134 0 -199 56q-37 31 -56.5 80.5
t-19.5 135.5v136q0 184 -13 245q24 -2 55 -2q67 0 88 4q-9 -70 -9 -247v-112q0 -74 14.5 -113t46.5 -64q42 -33 111 -33q72 0 108 35q29 28 39 71t10 127z" />
    <glyph glyph-name="Wcircumflex" unicode="&#x174;" horiz-adv-x="1092" 
d="M18 752q24 -2 77 -2q63 0 91 4q11 -58 50 -185q9 -35 48.5 -157.5t58.5 -176.5l202 481q17 36 22 36t25 -41l188 -473q6 19 48.5 137t60.5 173q45 141 55 204q24 -2 48 -2q52 0 82 4q-56 -125 -94 -228q-15 -39 -182 -488q-23 -55 -31 -55q-9 0 -29 47l-193 485
q-29 -64 -104.5 -245.5t-97.5 -230.5q-26 -56 -35 -56q-7 0 -30 63l-167 490q-56 158 -93 216zM562 973h20q29 -27 82 -68t82 -61l-35 -47q-100 58 -142 83q-42 -25 -142 -83l-30 47q129 92 165 129z" />
    <glyph glyph-name="wcircumflex" unicode="&#x175;" horiz-adv-x="969" 
d="M15 639q22 -2 74 -2q60 0 88 4q10 -50 47 -162q43 -145 86 -260l177 391q14 30 22 30q6 0 22 -34l163 -383q55 149 86 241q43 132 50 175q24 -2 46 -2q48 0 78 4q-62 -135 -85 -196q-12 -29 -70.5 -180t-90.5 -232q-19 -47 -29 -47q-5 0 -26 40l-166 395
q-24 -50 -90 -194.5t-88 -191.5q-27 -49 -33 -49q-7 0 -21 38l-153 425q-47 126 -87 190zM497 859h18q36 -33 153 -119l-33 -45l-133 74l-131 -74l-29 45q119 83 155 119z" />
    <glyph glyph-name="Ycircumflex" unicode="&#x176;" horiz-adv-x="654" 
d="M262 -4q10 80 10 283q0 31 -14 54q-30 56 -83 145t-72 116q-84 126 -116 158q36 -2 70 -2q86 0 101 4q13 -35 57 -116q122 -213 136 -236q84 148 146 267q29 57 38 83q22 -2 45 -2q60 0 87 3q-25 -26 -100 -144q-35 -57 -89 -150.5t-70 -134.5q-10 -24 -10 -48
q0 -195 9 -278q-20 2 -62 2q-66 0 -83 -4zM335 987h20q28 -27 81 -67.5t83 -61.5l-35 -47q-19 11 -68 39.5t-75 44.5q-58 -36 -141 -83l-31 47q38 26 92 67t74 61z" />
    <glyph glyph-name="ycircumflex" unicode="&#x177;" horiz-adv-x="590" 
d="M232 -3q9 77 9 239q0 28 -13 47q-38 70 -132 215q-10 14 -27 39t-27.5 39.5t-25 32.5t-26.5 30q32 -2 67 -2q82 0 95 4q22 -50 53 -103q4 -7 30.5 -52t51 -86t31.5 -52q71 123 124 221q22 41 33 70q20 -2 42 -2q59 0 83 3q-15 -16 -90 -126q-115 -186 -139 -242
q-8 -19 -8 -38q0 -164 9 -236q-20 2 -60 2q-60 0 -80 -3zM288 867h19q49 -45 153 -119l-33 -45l-134 74l-131 -74l-29 45q113 77 155 119z" />
    <glyph glyph-name="Ydieresis" unicode="&#x178;" horiz-adv-x="654" 
d="M262 -4q10 80 10 283q0 31 -14 54q-30 56 -83 145t-72 116q-84 126 -116 158q36 -2 70 -2q86 0 101 4q13 -35 57 -116q122 -213 136 -236q84 148 146 267q29 57 38 83q22 -2 45 -2q60 0 87 3q-25 -26 -100 -144q-35 -57 -89 -150.5t-70 -134.5q-10 -24 -10 -48
q0 -195 9 -278q-20 2 -62 2q-66 0 -83 -4zM450 835q-29 0 -43.5 16.5t-14.5 39.5q0 21 14.5 38.5t43.5 17.5q27 0 43.5 -15t16.5 -39q0 -27 -16 -42.5t-44 -15.5zM223 835q-29 0 -43 16.5t-14 39.5q0 22 14.5 38t43.5 16q26 0 42.5 -14t16.5 -38q0 -27 -15.5 -42.5
t-44.5 -15.5z" />
    <glyph glyph-name="Zacute" unicode="&#x179;" horiz-adv-x="667" 
d="M72 759q45 -9 234 -9h306q23 0 23 -4q0 -6 -11 -25q-282 -449 -410 -642h202q179 0 228 27q-5 -14 -16 -56t-14 -51q-5 -3 -61 -3q-79 0 -243 2t-271 2q-14 0 -14 4t21 36q160 241 407 632h-159q-179 0 -242 -33q14 42 20 120zM288 855l181 157q26 -38 67 -77
q-21 -10 -214 -123z" />
    <glyph glyph-name="zacute" unicode="&#x17a;" horiz-adv-x="597" 
d="M66 646q41 -9 208 -9h274q20 0 20 -4q0 -3 -10 -23q-184 -286 -351 -535h161q168 0 207 23q-2 -5 -28 -99q-4 -2 -54 -2q-69 0 -214.5 1.5t-242.5 1.5q-11 0 -11 5t17 31q176 256 351 528h-129q-168 0 -216 -30q10 45 18 112zM239 750l178 150q20 -35 63 -82
q-17 -7 -90.5 -46.5t-118.5 -66.5z" />
    <glyph glyph-name="Zdotaccent" unicode="&#x17b;" horiz-adv-x="667" 
d="M72 759q45 -9 234 -9h306q23 0 23 -4q0 -6 -11 -25q-282 -449 -410 -642h202q179 0 228 27q-5 -14 -16 -56t-14 -51q-5 -3 -61 -3q-79 0 -243 2t-271 2q-14 0 -14 4t21 36q160 241 407 632h-159q-179 0 -242 -33q14 42 20 120zM342 836q-30 0 -47 17t-17 42q0 26 17 42.5
t47 16.5q28 0 46.5 -15t18.5 -43t-18 -44t-47 -16z" />
    <glyph glyph-name="zdotaccent" unicode="&#x17c;" horiz-adv-x="597" 
d="M66 646q41 -9 208 -9h274q20 0 20 -4q0 -3 -10 -23q-184 -286 -351 -535h161q168 0 207 23q-2 -5 -28 -99q-4 -2 -54 -2q-69 0 -214.5 1.5t-242.5 1.5q-11 0 -11 5t17 31q176 256 351 528h-129q-168 0 -216 -30q10 45 18 112zM301 726q-30 0 -46.5 17t-16.5 42
q0 26 16.5 42.5t46.5 16.5q29 0 47 -15t18 -43t-17.5 -44t-47.5 -16z" />
    <glyph glyph-name="Zcaron" unicode="&#x17d;" horiz-adv-x="667" 
d="M72 759q45 -9 234 -9h306q23 0 23 -4q0 -6 -11 -25q-282 -449 -410 -642h202q179 0 228 27q-5 -14 -16 -56t-14 -51q-5 -3 -61 -3q-79 0 -243 2t-271 2q-14 0 -14 4t21 36q160 241 407 632h-159q-179 0 -242 -33q14 42 20 120zM352 817h-19q-29 27 -82.5 69t-81.5 60
l33 47q96 -54 144 -83q24 14 71 41.5t71 41.5l30 -47q-123 -87 -166 -129z" />
    <glyph glyph-name="zcaron" unicode="&#x17e;" horiz-adv-x="597" 
d="M66 646q41 -9 208 -9h274q20 0 20 -4q0 -3 -10 -23q-184 -286 -351 -535h161q168 0 207 23q-2 -5 -28 -99q-4 -2 -54 -2q-69 0 -214.5 1.5t-242.5 1.5q-11 0 -11 5t17 31q176 256 351 528h-129q-168 0 -216 -30q10 45 18 112zM310 708h-19q-52 50 -153 119l34 46l133 -79
l131 78l29 -45q-10 -7 -49 -36t-66.5 -50t-39.5 -33z" />
    <glyph glyph-name="uni018F" unicode="&#x18f;" horiz-adv-x="864" 
d="M110 580l-19 71q136 116 331 116q97 0 172.5 -34.5t119 -90.5t65.5 -121.5t22 -134.5q0 -206 -136 -320q-99 -83 -251 -83q-89 0 -159 30t-111.5 80t-63 108.5t-22.5 120.5q0 38 5 60q2 8 6 11t20 4q63 3 272 3h297q5 0 5 5q0 120 -72.5 195t-209.5 75q-154 0 -271 -95z
M658 317h-325q-112 0 -129 -3q-6 0 -7 -7q-1 -9 -1 -20q0 -54 23 -103.5t77.5 -85.5t130.5 -36q98 0 163.5 63t71.5 187q0 5 -4 5z" />
    <glyph glyph-name="florin" unicode="&#x192;" horiz-adv-x="648" 
d="M179 91l36 280q-94 -2 -122 -3q11 33 18 73q4 0 113 -2q26 181 94 267q76 91 200 91q62 0 114 -19q-14 -69 -16 -105q-12 18 -45.5 33.5t-67.5 15.5q-31 0 -54.5 -13.5t-39 -35t-27.5 -59.5t-19.5 -77t-15.5 -98q113 0 163 2q-8 -30 -16 -73q-38 3 -156 3
q-39 -318 -53 -365q-28 -114 -92 -162.5t-189 -45.5q10 22 20 75q51 1 78.5 16.5t46.5 62t30 139.5z" />
    <glyph glyph-name="Ohorn" unicode="&#x1a0;" horiz-adv-x="915" 
d="M765 641q90 -102 90 -247q0 -178 -108.5 -294.5t-294.5 -116.5q-98 0 -175.5 35t-123 92t-69 123.5t-23.5 135.5q0 77 26 147t74.5 126.5t127 90.5t176.5 34q143 0 245 -75q27 6 39 19.5t12 30.5q0 34 -23 60q80 9 107 20q9 -16 9 -52q0 -98 -89 -129zM478 62
q40 0 78 14.5t75 46.5t59.5 94t22.5 146q0 138 -74.5 232t-198.5 94q-106 0 -172 -77.5t-65 -212.5q0 -147 74 -242t201 -95z" />
    <glyph glyph-name="ohorn" unicode="&#x1a1;" 
d="M777 672q0 -100 -94 -131q76 -85 76 -206q0 -152 -95 -250.5t-260 -98.5q-71 0 -130 19.5t-98.5 52t-67 75.5t-40 88.5t-12.5 92.5q0 65 22.5 124.5t65.5 107.5t113 77t157 29q122 0 210 -59q32 4 46 18.5t14 32.5q0 34 -23 60q80 9 107 20q9 -17 9 -52zM423 58
q34 0 66.5 11.5t63.5 38t50 78t19 121.5q0 113 -61.5 193t-167.5 80q-90 0 -145.5 -62.5t-55.5 -176.5q1 -119 62.5 -201t168.5 -82z" />
    <glyph glyph-name="Uhorn" unicode="&#x1af;" horiz-adv-x="841" 
d="M106 752q26 -2 57 -2q68 0 92 4q-10 -70 -10 -291v-133q0 -88 17 -135t52 -77q48 -42 134 -42q81 0 125 45q37 35 48.5 85.5t11.5 149.5v107q0 207 -13 289q24 -2 52 -2q38 0 55 8.5t17 29.5q0 34 -29 69q68 8 99 19q9 -16 9 -50q0 -51 -24 -85.5t-63 -47.5
q-5 -83 -5 -230v-108q0 -71 -5 -117.5t-28 -100.5t-66 -90q-74 -64 -205 -64q-146 0 -221 67q-46 40 -66.5 100.5t-20.5 178.5v134q0 231 -13 289z" />
    <glyph glyph-name="uhorn" unicode="&#x1b0;" horiz-adv-x="749" 
d="M93 639q24 -2 55 -2q67 0 88 4q-9 -70 -9 -247v-112q0 -74 14.5 -113t46.5 -64q42 -33 111 -33q72 0 108 35q29 28 39 71t10 127v89q0 166 -12 245q22 -2 46 -2q70 1 70 53q0 32 -22 59q77 9 106 20q9 -16 9 -52q0 -104 -98 -132q-5 -72 -5 -191v-91q0 -92 -16.5 -155
t-71.5 -108q-65 -54 -181 -54q-134 0 -199 56q-37 31 -56.5 80.5t-19.5 135.5v136q0 184 -13 245z" />
    <glyph glyph-name="uni01CD" unicode="&#x1cd;" horiz-adv-x="722" 
d="M464 220h-248q-4 0 -5 -3q-58 -157 -74 -219q-26 2 -57 2q-52 0 -74 -4q43 84 118 257l200 466q22 48 29 48q9 0 30 -48q148 -330 201 -452q96 -217 132 -269q-52 2 -65 2q-61 0 -93 -4q-31 85 -90 221q-2 3 -4 3zM243 302h190q4 0 3 4l-100 248l-95 -248q-1 -4 2 -4z
M361 814h-20q-61 58 -163 129l33 47l144 -84q67 41 141 83l31 -47q-38 -26 -92 -67t-74 -61z" />
    <glyph glyph-name="uni01CE" unicode="&#x1ce;" horiz-adv-x="645" 
d="M409 175h-214q-4 0 -4 -3q-47 -120 -61 -174q-26 2 -54 2q-39 0 -72 -3q22 40 107 222l171 391q21 42 28 42q8 0 27 -42q43 -86 185 -384q99 -203 118 -228q-52 2 -62 2q-43 0 -91 -3q-33 86 -74 175q0 3 -4 3zM222 251h158q3 0 3 4l-85 197l-78 -197q-1 -4 2 -4z
M325 708h-19q-52 50 -153 119l34 46l133 -79l131 78l29 -45q-10 -7 -49 -36t-66.5 -50t-39.5 -33z" />
    <glyph glyph-name="uni01CF" unicode="&#x1cf;" horiz-adv-x="397" 
d="M136 287v176q0 245 -11 289q11 -2 60 -2q66 0 86 4q-9 -86 -9 -291v-176q0 -242 11 -289q-22 2 -62 2q-58 0 -84 -4q9 72 9 291zM208 811h-20q-28 28 -81.5 69t-82.5 60l34 47q135 -77 144 -83q24 14 71 41.5t70 41.5l31 -47q-128 -91 -166 -129z" />
    <glyph glyph-name="uni01D0" unicode="&#x1d0;" horiz-adv-x="359" 
d="M119 244v150q0 205 -10 245q10 -2 57 -2q65 0 83 4q-8 -88 -8 -247v-150q0 -209 10 -246q-20 2 -60 2q-44 0 -80 -3q8 54 8 247zM189 708h-18q-54 51 -154 119l34 46l133 -79l131 78l29 -45q-10 -7 -49 -36t-66.5 -50t-39.5 -33z" />
    <glyph glyph-name="uni01D1" unicode="&#x1d1;" horiz-adv-x="915" 
d="M452 -17q-98 0 -175.5 35t-123 92t-69 123.5t-23.5 135.5q0 77 26 147t74.5 126.5t127 90.5t176.5 34q176 0 283 -107.5t107 -265.5q0 -178 -108.5 -294.5t-294.5 -116.5zM478 62q40 0 78 14.5t75 46.5t59.5 94t22.5 146q0 138 -74.5 232t-198.5 94q-106 0 -172 -77.5
t-65 -212.5q0 -147 74 -242t201 -95zM467 815h-20q-29 27 -82 68t-82 61l34 47q135 -77 144 -83q24 14 71 41.5t70 41.5l31 -47q-128 -91 -166 -129z" />
    <glyph glyph-name="uni01D2" unicode="&#x1d2;" 
d="M404 -14q-71 0 -130 19.5t-98.5 52t-67 75.5t-40 88.5t-12.5 92.5q0 65 22.5 124.5t65.5 107.5t113 77t157 29q157 0 251 -91.5t94 -225.5q0 -152 -95 -250.5t-260 -98.5zM423 58q34 0 66.5 11.5t63.5 38t50 78t19 121.5q0 113 -61.5 193t-167.5 80q-90 0 -145.5 -62.5
t-55.5 -176.5q1 -119 62.5 -201t168.5 -82zM412 703h-19q-43 42 -153 120l34 45l132 -79l132 78l29 -45q-126 -90 -155 -119z" />
    <glyph glyph-name="uni01D3" unicode="&#x1d3;" horiz-adv-x="841" 
d="M106 752q26 -2 57 -2q68 0 92 4q-10 -70 -10 -291v-133q0 -88 17 -135t52 -77q49 -42 134 -42q81 0 125 45q37 35 48.5 85.5t11.5 149.5v107q0 207 -13 289q26 -2 54 -2q53 0 69 4q-12 -70 -12 -291v-108q0 -71 -5 -117.5t-28 -100.5t-66 -90q-74 -64 -205 -64
q-147 0 -221 67q-42 37 -64.5 95t-22.5 159v159q0 231 -13 289zM438 805h-20q-29 27 -82 68t-82 61l34 47q135 -77 144 -83q23 14 70 41.5t71 41.5l31 -47q-128 -91 -166 -129z" />
    <glyph glyph-name="uni01D4" unicode="&#x1d4;" horiz-adv-x="749" 
d="M93 639q24 -2 55 -2q67 0 88 4q-9 -70 -9 -247v-112q0 -74 14.5 -113t46.5 -64q42 -33 111 -33q72 0 108 35q29 28 39 71t10 127v89q0 166 -12 245q24 -2 51 -2q52 0 66 4q-11 -85 -11 -247v-91q0 -92 -16.5 -155t-71.5 -108q-65 -54 -181 -54q-134 0 -199 56
q-37 31 -56.5 80.5t-19.5 135.5v136q0 184 -13 245zM394 702h-19q-52 50 -153 119l34 46l132 -79l132 78l29 -45q-137 -101 -155 -119z" />
    <glyph glyph-name="uni01D5" unicode="&#x1d5;" horiz-adv-x="841" 
d="M106 752q26 -2 57 -2q68 0 92 4q-10 -70 -10 -291v-133q0 -88 17 -135t52 -77q49 -42 134 -42q81 0 125 45q37 35 48.5 85.5t11.5 149.5v107q0 207 -13 289q26 -2 54 -2q53 0 69 4q-12 -70 -12 -291v-108q0 -71 -5 -117.5t-28 -100.5t-66 -90q-74 -64 -205 -64
q-147 0 -221 67q-42 37 -64.5 95t-22.5 159v159q0 231 -13 289zM537 808q-24 0 -36.5 14t-12.5 33q0 18 12.5 32.5t36.5 14.5q23 0 36.5 -12t13.5 -33q0 -22 -13 -35.5t-37 -13.5zM313 808q-24 0 -36 14t-12 33q0 18 12.5 32t36.5 14q22 0 36 -11.5t14 -32.5
q0 -23 -13.5 -36t-37.5 -13zM558 965q-27 -4 -225 -4h-60l21 74q30 -3 199 -3h86q-2 -4 -9.5 -31t-11.5 -36z" />
    <glyph glyph-name="uni01D6" unicode="&#x1d6;" horiz-adv-x="749" 
d="M93 639q24 -2 55 -2q67 0 88 4q-9 -70 -9 -247v-112q0 -74 14.5 -113t46.5 -64q42 -33 111 -33q72 0 108 35q29 28 39 71t10 127v89q0 166 -12 245q24 -2 51 -2q52 0 66 4q-11 -85 -11 -247v-91q0 -92 -16.5 -155t-71.5 -108q-65 -54 -181 -54q-134 0 -199 56
q-37 31 -56.5 80.5t-19.5 135.5v136q0 184 -13 245zM493 695q-26 0 -39.5 14.5t-13.5 32.5t14 33t39 15q24 0 39 -12t15 -33q0 -50 -54 -50zM269 695q-26 0 -39 14.5t-13 32.5q0 19 13.5 33t39.5 14q24 0 38.5 -12t14.5 -33q0 -23 -14 -36t-40 -13zM514 849q-30 -3 -225 -3
h-60l21 71q30 -3 199 -3h86q-2 -4 -9.5 -30t-11.5 -35z" />
    <glyph glyph-name="uni01D7" unicode="&#x1d7;" horiz-adv-x="841" 
d="M106 752q26 -2 57 -2q68 0 92 4q-10 -70 -10 -291v-133q0 -88 17 -135t52 -77q49 -42 134 -42q81 0 125 45q37 35 48.5 85.5t11.5 149.5v107q0 207 -13 289q26 -2 54 -2q53 0 69 4q-12 -70 -12 -291v-108q0 -71 -5 -117.5t-28 -100.5t-66 -90q-74 -64 -205 -64
q-147 0 -221 67q-42 37 -64.5 95t-22.5 159v159q0 231 -13 289zM383 932l94 135q31 -20 80 -39q-6 -5 -58.5 -54t-71.5 -67zM538 811q-24 0 -37 14t-13 32t12.5 33t37.5 15q22 0 36 -12.5t14 -32.5q0 -23 -13 -36t-37 -13zM314 811q-25 0 -37 14t-12 32q0 19 12.5 32.5
t37.5 13.5q22 0 35.5 -11.5t13.5 -31.5q0 -49 -50 -49z" />
    <glyph glyph-name="uni01D8" unicode="&#x1d8;" horiz-adv-x="749" 
d="M93 639q24 -2 55 -2q67 0 88 4q-9 -70 -9 -247v-112q0 -74 14.5 -113t46.5 -64q42 -33 111 -33q72 0 108 35q29 28 39 71t10 127v89q0 166 -12 245q24 -2 51 -2q52 0 66 4q-11 -85 -11 -247v-91q0 -92 -16.5 -155t-71.5 -108q-65 -54 -181 -54q-134 0 -199 56
q-37 31 -56.5 80.5t-19.5 135.5v136q0 184 -13 245zM326 853l129 147q13 -17 70 -61q-98 -68 -164 -123zM498 702q-28 0 -42 14t-14 35q0 19 14.5 34.5t41.5 15.5q25 0 41 -13t16 -34q0 -24 -15 -38t-42 -14zM249 702q-28 0 -42 14.5t-14 34.5t15 34.5t42 14.5
q24 0 40 -12.5t16 -33.5q0 -24 -15 -38t-42 -14z" />
    <glyph glyph-name="uni01D9" unicode="&#x1d9;" horiz-adv-x="841" 
d="M106 752q26 -2 57 -2q68 0 92 4q-10 -70 -10 -291v-133q0 -88 17 -135t52 -77q49 -42 134 -42q81 0 125 45q37 35 48.5 85.5t11.5 149.5v107q0 207 -13 289q26 -2 54 -2q53 0 69 4q-12 -70 -12 -291v-108q0 -71 -5 -117.5t-28 -100.5t-66 -90q-74 -64 -205 -64
q-147 0 -221 67q-42 37 -64.5 95t-22.5 159v159q0 231 -13 289zM428 915h-20q-28 25 -78 63.5t-77 54.5l37 45l131 -79l141 79l24 -43q-28 -17 -82 -58.5t-76 -61.5zM532 805q-24 0 -37 14t-13 32t12.5 33t37.5 15q22 0 36 -12.5t14 -32.5q0 -23 -13 -36t-37 -13zM308 805
q-25 0 -37 14t-12 32q0 19 12.5 32.5t37.5 13.5q22 0 35.5 -11.5t13.5 -31.5q0 -49 -50 -49z" />
    <glyph glyph-name="uni01DA" unicode="&#x1da;" horiz-adv-x="749" 
d="M93 639q24 -2 55 -2q67 0 88 4q-9 -70 -9 -247v-112q0 -74 14.5 -113t46.5 -64q42 -33 111 -33q72 0 108 35q29 28 39 71t10 127v89q0 166 -12 245q24 -2 51 -2q52 0 66 4q-11 -85 -11 -247v-91q0 -92 -16.5 -155t-71.5 -108q-65 -54 -181 -54q-134 0 -199 56
q-37 31 -56.5 80.5t-19.5 135.5v136q0 184 -13 245zM382 805h-20q-95 77 -154 112l37 42l130 -75l141 74l24 -39q-28 -17 -82 -56t-76 -58zM486 695q-26 0 -39.5 14.5t-13.5 32.5t13.5 33t39.5 15q24 0 39 -12t15 -33q0 -50 -54 -50zM262 695q-26 0 -39 14.5t-13 32.5
q0 19 13.5 33t39.5 14q24 0 38.5 -12t14.5 -33q0 -23 -14 -36t-40 -13z" />
    <glyph glyph-name="uni01DB" unicode="&#x1db;" horiz-adv-x="841" 
d="M106 752q26 -2 57 -2q68 0 92 4q-10 -70 -10 -291v-133q0 -88 17 -135t52 -77q49 -42 134 -42q81 0 125 45q37 35 48.5 85.5t11.5 149.5v107q0 207 -13 289q26 -2 54 -2q53 0 69 4q-12 -70 -12 -291v-108q0 -71 -5 -117.5t-28 -100.5t-66 -90q-74 -64 -205 -64
q-147 0 -221 67q-42 37 -64.5 95t-22.5 159v159q0 231 -13 289zM378 1066l88 -138l-40 -26q-53 58 -133 123q63 26 85 41zM538 808q-24 0 -37 14t-13 32t12.5 33t37.5 15q22 0 36 -12.5t14 -32.5q0 -23 -13 -36t-37 -13zM314 808q-25 0 -37 14t-12 32q0 19 12.5 32.5
t37.5 13.5q22 0 35.5 -11.5t13.5 -31.5q0 -49 -50 -49z" />
    <glyph glyph-name="uni01DC" unicode="&#x1dc;" horiz-adv-x="749" 
d="M93 639q24 -2 55 -2q67 0 88 4q-9 -70 -9 -247v-112q0 -74 14.5 -113t46.5 -64q42 -33 111 -33q72 0 108 35q29 28 39 71t10 127v89q0 166 -12 245q24 -2 51 -2q52 0 66 4q-11 -85 -11 -247v-91q0 -92 -16.5 -155t-71.5 -108q-65 -54 -181 -54q-134 0 -199 56
q-37 31 -56.5 80.5t-19.5 135.5v136q0 184 -13 245zM289 1000l129 -149l-36 -35q-77 63 -164 123q51 36 71 61zM498 702q-27 0 -41.5 15t-14.5 34t14.5 34.5t41.5 15.5q25 0 41 -13t16 -34q0 -24 -15 -38t-42 -14zM249 702q-28 0 -42 14.5t-14 34.5t15 34.5t42 14.5
q24 0 40 -12.5t16 -33.5q0 -24 -15 -38t-42 -14z" />
    <glyph glyph-name="Gcaron" unicode="&#x1e6;" horiz-adv-x="863" 
d="M764 188v-74q0 -77 1 -89q-46 -18 -119.5 -30t-139.5 -12q-237 0 -356 142q-89 104 -89 256q0 114 47.5 192t118.5 122q109 72 288 72q55 0 110 -8.5t97 -18.5t46 -11q-14 -62 -14 -136q-29 33 -99.5 62t-168.5 29q-125 0 -202 -72q-81 -78 -81 -209t69 -211
q94 -123 254 -123q77 0 109 19q3 3 3 28v99q0 101 -14 157q26 -3 68 -3q19 0 79 4q-7 -56 -7 -185zM484 821h-20q-61 58 -163 129l33 47q16 -9 45.5 -26t53.5 -31t45 -27q67 41 141 83l31 -47q-38 -26 -92 -67t-74 -61z" />
    <glyph glyph-name="gcaron" unicode="&#x1e7;" horiz-adv-x="769" 
d="M682 156v-54v-81q-39 -15 -104.5 -25t-125.5 -10q-217 0 -321 124q-75 87 -75 214q0 176 146 268q95 60 256 60q49 0 98 -7t85.5 -15t42.5 -9q-14 -56 -14 -126q-26 29 -88.5 54t-148.5 25q-111 0 -174 -60q-67 -65 -67 -171q0 -128 71 -202.5t206 -74.5q64 0 89 15
q2 2 2 22v77q0 93 -13 136q16 -2 66 -2q33 0 75 3q-6 -63 -6 -161zM415 708h-18q-43 42 -153 119l34 46l132 -79l131 78l30 -45q-141 -104 -156 -119z" />
    <glyph glyph-name="uni0218" unicode="&#x218;" horiz-adv-x="536" 
d="M47 26q12 51 10 133q27 -36 76.5 -63t105.5 -27q59 0 89.5 30.5t30.5 78.5q0 39 -20 69t-78 68l-50 33q-78 50 -107.5 101.5t-29.5 112.5q0 87 63 146t170 59q43 0 101 -9q51 -9 63 -9q-9 -33 -9 -130q-57 66 -157 66q-50 0 -80.5 -27.5t-30.5 -68.5q0 -38 17.5 -65.5
t72.5 -64.5l49 -32q89 -59 121.5 -108t32.5 -113q0 -47 -23.5 -97.5t-73.5 -82.5q-67 -43 -161 -43q-51 0 -103 12t-79 31zM215 -82q55 8 104 21q0 -8 -2 -34q-10 -85 -71 -158q-1 0 -18.5 -3t-37.5 -6t-25 -3q60 101 50 183z" />
    <glyph glyph-name="uni0219" unicode="&#x219;" horiz-adv-x="483" 
d="M42 22q11 44 9 123q27 -32 70.5 -55.5t92.5 -23.5q50 0 76 23.5t26 61.5q0 31 -17 55t-66 55l-45 28q-69 43 -95.5 87.5t-26.5 97.5q0 75 57 126.5t153 51.5q52 0 92 -7q50 -8 57 -8q-9 -30 -9 -120q-49 58 -141 58q-43 0 -68 -21.5t-25 -55.5q0 -29 14.5 -51.5
t59.5 -51.5l45 -28q80 -50 109 -92t29 -98q0 -41 -22 -84.5t-66 -70.5q-57 -36 -146 -36q-45 0 -91.5 10t-71.5 26zM181 -79q43 6 104 20q0 -20 -2 -34q-8 -84 -71 -157q-2 -1 -37 -6.5t-43 -5.5q59 101 49 183z" />
    <glyph glyph-name="uni021A" unicode="&#x21a;" horiz-adv-x="680" 
d="M2 647q13 44 20 113q39 -10 161 -10h333q128 0 160 9q-11 -49 -13 -119q-27 18 -111 24q-48 4 -154 4v-381q0 -203 10 -289q-26 2 -57 2q-57 0 -88 -4q9 72 9 291v381q-90 0 -133 -2q-99 -5 -137 -19zM281 -80q43 6 104 20q0 -20 -2 -33q-8 -83 -71 -158q-1 0 -18.5 -3
t-37 -6t-24.5 -3q59 102 49 183z" />
    <glyph glyph-name="uni021B" unicode="&#x21b;" horiz-adv-x="612" 
d="M3 542q12 37 19 105q36 -10 145 -10h296q113 0 143 8q-10 -48 -12 -110q-25 16 -98 22q-70 4 -134 4v-315q2 -186 10 -248q-24 2 -55 2q-37 0 -85 -3q9 61 9 247v317q-60 0 -116 -2q-84 -4 -122 -17zM252 -75q43 6 104 20q0 -6 -2 -34q-10 -84 -71 -157q-2 -1 -37.5 -6.5
t-43.5 -5.5q60 100 50 183z" />
    <glyph glyph-name="uni0237" unicode="&#x237;" horiz-adv-x="366" 
d="M255 394v-216q0 -105 -4 -151.5t-20 -83.5q-16 -39 -42 -66t-55.5 -39.5t-55 -17.5t-51.5 -5q-2 20 -18 58q62 14 87 46q23 28 30.5 78t7.5 179v218q0 190 -13 246q15 -3 55 -3q66 0 88 5q-9 -76 -9 -248z" />
    <glyph glyph-name="uni0251" unicode="&#x251;" horiz-adv-x="645" 
d="M409 175h-214q-4 0 -4 -3q-47 -120 -61 -174q-26 2 -54 2q-39 0 -72 -3q22 40 107 222l171 391q21 42 28 42q8 0 27 -42q43 -86 185 -384q99 -203 118 -228q-52 2 -62 2q-43 0 -91 -3q-33 86 -74 175q0 3 -4 3zM222 251h158q3 0 3 4l-85 197l-78 -197q-1 -4 2 -4z" />
    <glyph glyph-name="uni0259" unicode="&#x259;" horiz-adv-x="766" 
d="M98 489l-19 64q120 99 295 99q86 0 153 -29t106 -76.5t58.5 -103t19.5 -113.5q0 -177 -122 -276q-85 -68 -219 -68q-79 0 -141.5 25.5t-100 68.5t-57 93t-19.5 104q-1 18 3 53q2 8 6.5 10.5t19.5 3.5q43 2 242 2h247q6 0 6 7q-2 92 -63.5 152.5t-176.5 60.5
q-140 0 -238 -77zM573 269h-274q-85 0 -109 -2q-4 -1 -5 -7q-1 -8 -1 -21q0 -69 55 -125t145 -56q81 0 133.5 51.5t58.5 155.5q0 4 -3 4z" />
    <glyph glyph-name="uni02BB" unicode="&#x2bb;" horiz-adv-x="230" 
d="M149 586q0 -48 7 -78q-20 0 -56.5 5t-50.5 11q-3 14 -3 33q0 62 24.5 129t54.5 102q18 6 79 11q-25 -44 -40 -104.5t-15 -108.5z" />
    <glyph glyph-name="uni02BC" unicode="&#x2bc;" horiz-adv-x="254" 
d="M95 722q0 32 -7 78q19 0 55.5 -5t51.5 -11q2 -18 2 -33q0 -62 -24 -129t-54 -102q-20 -6 -80 -11q25 43 40.5 103.5t15.5 109.5z" />
    <glyph glyph-name="uni02BE" unicode="&#x2be;" horiz-adv-x="500" 
d="M196 808v39q59 7 59 54q0 26 -17 39.5t-42 14.5v40q51 0 80.5 -26t29.5 -68t-31.5 -67.5t-78.5 -25.5z" />
    <glyph glyph-name="uni02BF" unicode="&#x2bf;" horiz-adv-x="500" 
d="M306 847v-39q-48 0 -79.5 25.5t-31.5 67.5t29.5 68t80.5 26v-40q-25 -1 -42 -14.5t-17 -39.5q0 -47 60 -54z" />
    <glyph glyph-name="circumflex" unicode="&#x2c6;" horiz-adv-x="400" 
d="M193 867h18q46 -42 154 -119l-34 -45l-133 74l-131 -74l-29 45q119 83 155 119z" />
    <glyph glyph-name="caron" unicode="&#x2c7;" horiz-adv-x="400" 
d="M209 708h-19q-52 50 -153 119l34 46l133 -79l131 78l29 -45q-10 -7 -49 -36t-66.5 -50t-39.5 -33z" />
    <glyph glyph-name="uni02C8" unicode="&#x2c8;" horiz-adv-x="206" 
d="M134 487l-61 -16q-15 221 -22 276q67 2 103 12q-5 -42 -11.5 -144.5t-8.5 -127.5z" />
    <glyph glyph-name="uni02C9" unicode="&#x2c9;" horiz-adv-x="400" 
d="M342 740q-27 -4 -245 -4h-60l22 77q28 -3 218 -3h86q-9 -47 -21 -70z" />
    <glyph glyph-name="uni02CA" unicode="&#x2ca;" horiz-adv-x="400" 
d="M123 853l180 157q35 -47 68 -78q-42 -17 -214 -123z" />
    <glyph glyph-name="uni02CB" unicode="&#x2cb;" horiz-adv-x="400" 
d="M96 1015l180 -164l-34 -42q-185 115 -214 128q41 39 68 78z" />
    <glyph glyph-name="uni02CC" unicode="&#x2cc;" horiz-adv-x="206" 
d="M134 -333l-61 -16q-15 221 -22 276q67 2 103 12q-5 -42 -11.5 -144.5t-8.5 -127.5z" />
    <glyph glyph-name="breve" unicode="&#x2d8;" horiz-adv-x="400" 
d="M21 836l35 30q56 -67 142 -67q90 0 145 67l30 -30q-59 -115 -180 -115q-56 0 -102.5 30t-69.5 85z" />
    <glyph glyph-name="dotaccent" unicode="&#x2d9;" horiz-adv-x="400" 
d="M199 726q-30 0 -47 17t-17 42q0 26 17 42.5t47 16.5q28 0 46.5 -15t18.5 -43t-18 -44t-47 -16z" />
    <glyph glyph-name="ring" unicode="&#x2da;" horiz-adv-x="400" 
d="M199 697q-43 0 -69 23.5t-26 62.5q0 37 25.5 62.5t69.5 25.5q45 0 70.5 -24.5t25.5 -58.5q0 -45 -29 -68t-67 -23zM155 783q0 -20 12.5 -30.5t31.5 -10.5q44 0 44 44q0 18 -11.5 29.5t-32.5 11.5q-18 0 -31 -11t-13 -33z" />
    <glyph glyph-name="ogonek" unicode="&#x2db;" horiz-adv-x="500" 
d="M302 -154q30 0 62 16l-3 -57q-32 -28 -98 -28q-49 0 -79 26.5t-30 67.5q0 70 102 129h89q-42 -24 -70 -53.5t-28 -54.5q0 -46 55 -46z" />
    <glyph glyph-name="tilde" unicode="&#x2dc;" horiz-adv-x="400" 
d="M270 717q-33 0 -83 22t-68 22q-44 0 -79 -47l-29 38q19 35 49 57t64 22q32 0 86 -23q48 -19 69 -19q42 0 80 47l29 -36q-44 -83 -118 -83z" />
    <glyph glyph-name="hungarumlaut" unicode="&#x2dd;" horiz-adv-x="400" 
d="M54 724l86 171q35 -22 92 -47q-32 -26 -135 -146zM255 724l86 171q29 -18 92 -47q-14 -12 -39 -38.5t-56 -62t-40 -45.5z" />
    <glyph glyph-name="uni0300" unicode="&#x300;" horiz-adv-x="0" 
d="M-56 900l178 -151l-32 -45q-45 27 -118.5 66.5t-90.5 46.5q44 48 63 83z" />
    <glyph glyph-name="uni0301" unicode="&#x301;" horiz-adv-x="0" 
d="M-118 749l179 151q18 -34 62 -83q-17 -7 -91.5 -47t-117.5 -66z" />
    <glyph glyph-name="uni0302" unicode="&#x302;" horiz-adv-x="0" 
d="M-9 867h19q36 -33 153 -119l-33 -45l-133 74l-131 -74l-29 45q116 81 154 119z" />
    <glyph glyph-name="uni0303" unicode="&#x303;" horiz-adv-x="0" 
d="M71 717q-33 0 -83 22t-68 22q-43 0 -79 -47l-29 38q45 79 114 79q31 0 85 -23q48 -19 69 -19q23 0 40 9.5t40 37.5l29 -36q-44 -83 -118 -83z" />
    <glyph glyph-name="uni0304" unicode="&#x304;" horiz-adv-x="0" 
d="M142 740q-27 -4 -245 -4h-60l22 77q29 -3 218 -3h86q-9 -47 -21 -70z" />
    <glyph glyph-name="uni0306" unicode="&#x306;" horiz-adv-x="0" 
d="M-176 836l35 30q56 -67 142 -67q90 0 145 67l30 -30q-59 -115 -180 -115q-56 0 -102.5 30t-69.5 85z" />
    <glyph glyph-name="uni0307" unicode="&#x307;" horiz-adv-x="0" 
d="M0 726q-30 0 -47 17t-17 42q0 26 17 42.5t47 16.5q28 0 46.5 -15t18.5 -43t-18 -44t-47 -16z" />
    <glyph glyph-name="uni0308" unicode="&#x308;" horiz-adv-x="0" 
d="M113 728q-29 0 -44 16.5t-15 39.5q0 21 15 38.5t44 17.5q26 0 42.5 -15t16.5 -39q0 -26 -16 -42t-43 -16zM-114 728q-29 0 -43.5 17t-14.5 39t15 38t44 16q26 0 42.5 -14t16.5 -38q0 -27 -16 -42.5t-44 -15.5z" />
    <glyph glyph-name="uni030A" unicode="&#x30a;" horiz-adv-x="0" 
d="M0 697q-43 0 -69 23.5t-26 62.5q0 37 25.5 62.5t69.5 25.5q45 0 70.5 -24.5t25.5 -58.5q0 -45 -29 -68t-67 -23zM-44 783q0 -20 12.5 -30.5t31.5 -10.5q44 0 44 44q0 18 -11.5 29.5t-32.5 11.5q-18 0 -31 -11t-13 -33z" />
    <glyph glyph-name="uni030B" unicode="&#x30b;" horiz-adv-x="0" 
d="M-189 724l86 171q25 -17 91 -47q-22 -19 -135 -146zM12 724l86 171q18 -12 91 -47q-14 -11 -39 -38.5t-54.5 -61t-41.5 -46.5z" />
    <glyph glyph-name="uni030C" unicode="&#x30c;" horiz-adv-x="0" 
d="M9 708h-19q-52 50 -153 119l34 46l132 -79l131 78l30 -45q-137 -101 -155 -119z" />
    <glyph glyph-name="uni031B" unicode="&#x31b;" horiz-adv-x="0" 
d="M-46 687l-19 63q52 0 52 38q0 35 -30 69q68 8 100 19q8 -15 8 -50q0 -60 -31 -95.5t-80 -43.5z" />
    <glyph glyph-name="uni0323" unicode="&#x323;" horiz-adv-x="0" 
d="M1 -191q-28 0 -44 15.5t-16 41.5t16.5 42t43.5 16q25 0 42 -15t17 -42t-16.5 -42.5t-42.5 -15.5z" />
    <glyph glyph-name="uni0326" unicode="&#x326;" horiz-adv-x="0" 
d="M-27 -75q43 6 104 20q0 -6 -2 -34q-10 -84 -71 -157q-2 -1 -37.5 -6.5t-43.5 -5.5q60 100 50 183z" />
    <glyph glyph-name="uni0327" unicode="&#x327;" horiz-adv-x="0" 
d="M-23 -4h64l-45 -53q41 -7 72 -28.5t31 -61.5q0 -38 -37.5 -69t-125.5 -31q-10 0 -34 2l11 49q45 -1 69 11.5t24 34.5q-2 44 -94 49l8 28z" />
    <glyph glyph-name="uni0328" unicode="&#x328;" horiz-adv-x="0" 
d="M43 -154q30 0 62 16l-2 -57q-34 -28 -99 -28q-49 0 -78.5 26.5t-29.5 67.5q0 71 101 129h89q-42 -24 -70 -53.5t-28 -54.5q0 -46 55 -46z" />
    <glyph glyph-name="uni032E" unicode="&#x32e;" horiz-adv-x="0" 
d="M-187 -101l38 32q60 -71 149 -71q90 0 154 71l32 -32q-65 -121 -191 -121q-60 0 -108.5 31.5t-73.5 89.5z" />
    <glyph glyph-name="uni0331" unicode="&#x331;" horiz-adv-x="0" 
d="M140 -166q-27 -4 -249 -4h-60l22 77q51 -3 218 -3h89q-7 -41 -20 -70z" />
    <glyph glyph-name="uni037E" unicode="&#x37e;" horiz-adv-x="322" 
d="M167 352q-35 0 -54 22.5t-19 51.5q0 27 19 50.5t55 23.5q31 0 51.5 -19.5t20.5 -51.5q0 -33 -20.5 -55t-52.5 -22zM109 138q21 1 62.5 10t57.5 15q1 -13 -3 -55q-6 -56 -35.5 -123.5t-77.5 -124.5q-39 -10 -82 -12q94 160 78 290z" />
    <glyph glyph-name="tonos" unicode="&#x384;" horiz-adv-x="400" 
d="M128 395l47 251q28 0 106 3q-5 -11 -43 -112t-54 -138z" />
    <glyph glyph-name="dieresistonos" unicode="&#x385;" horiz-adv-x="400" 
d="M160 827l42 163q51 -14 100 -22q-30 -47 -91 -157zM324 700q-29 0 -44 15.5t-15 35.5t15 35.5t44 15.5q26 0 42.5 -13t16.5 -35q0 -25 -15.5 -39.5t-43.5 -14.5zM74 700q-29 0 -43.5 15t-14.5 36t15 36t44 15q26 0 42.5 -13t16.5 -35q0 -25 -15.5 -39.5t-44.5 -14.5z" />
    <glyph glyph-name="Alphatonos" unicode="&#x386;" horiz-adv-x="722" 
d="M464 220h-248q-4 0 -5 -3q-58 -157 -74 -219q-26 2 -57 2q-52 0 -74 -4q43 84 118 257l200 466q22 48 29 48q9 0 30 -48q148 -330 201 -452q96 -217 132 -269q-52 2 -65 2q-61 0 -93 -4q-31 85 -90 221q-2 3 -4 3zM243 302h190q4 0 3 4l-100 248l-95 -248q-1 -4 2 -4z
M22 504l47 251q28 0 106 3q-3 -7 -42 -109.5t-55 -140.5z" />
    <glyph glyph-name="anoteleia" unicode="&#x387;" horiz-adv-x="314" 
d="M156 462q-35 0 -53.5 22t-18.5 51q0 28 18.5 51t54.5 23q31 0 51.5 -21t20.5 -52q0 -32 -20.5 -53t-52.5 -21z" />
    <glyph glyph-name="Epsilontonos" unicode="&#x388;" horiz-adv-x="656" 
d="M192 287v176q0 240 -13 289q17 -2 80 -2h233q74 0 92 6q-9 -45 -9 -112q-22 13 -93 20q-66 4 -160 4q-4 0 -4 -3v-222q0 -5 3 -5q122 0 154 1q72 2 92 9q-11 -59 -9 -113q-27 14 -77 18q-66 4 -160 4q-3 0 -3 -4v-55q0 -202 6 -208q7 -5 24 -7q35 -4 96 -4q123 0 170 23
q-15 -54 -23 -105q-5 -4 -56 -4q-78 0 -164.5 3.5t-102.5 3.5q-64 0 -86 -3q10 92 10 290zM-35 504l46 251q29 0 107 3q-6 -13 -44 -113t-54 -137z" />
    <glyph glyph-name="Etatonos" unicode="&#x389;" horiz-adv-x="967" 
d="M196 287v176q0 230 -13 289q26 -2 63 -2q52 0 84 4q-8 -72 -8 -276v-16q0 -4 4 -4h378q4 0 4 4v16q0 198 -10 274q28 -2 63 -2q55 0 82 4q-10 -76 -10 -291v-176q0 -197 10 -289q-24 2 -63 2q-54 0 -82 -4q10 86 10 291v74q0 4 -4 4h-379q-3 0 -3 -4v-74q0 -197 10 -289
q-22 2 -57 2q-58 0 -88 -4q9 79 9 291zM-42 504l46 251q29 0 107 3q-6 -13 -44 -113t-54 -137z" />
    <glyph glyph-name="Iotatonos" unicode="&#x38a;" horiz-adv-x="452" 
d="M191 287v176q0 246 -12 289q12 -2 60 -2q67 0 87 4q-9 -86 -9 -291v-176q0 -239 10 -289q-20 2 -61 2q-58 0 -84 -4q9 72 9 291zM-44 504l46 251q29 0 107 3q-3 -7 -42 -109.5t-55 -140.5z" />
    <glyph glyph-name="Omicrontonos" unicode="&#x38c;" horiz-adv-x="991" 
d="M528 -17q-98 0 -176 35t-123 92t-68.5 123t-23.5 136q0 77 26 147t74.5 126.5t127 90.5t176.5 34q175 0 282 -107.5t107 -265.5q0 -178 -108.5 -294.5t-293.5 -116.5zM554 62q40 0 78 14.5t75 46.5t59.5 94t22.5 146q0 138 -74.5 232t-198.5 94q-106 0 -172 -77.5
t-66 -212.5q1 -147 75 -242t201 -95zM-38 504l47 251q28 0 106 3q-3 -7 -42 -109.5t-55 -140.5z" />
    <glyph glyph-name="Upsilontonos" unicode="&#x38e;" horiz-adv-x="979" 
d="M201 682l11 75q2 0 11.5 0.5t18.5 0.5q130 0 224.5 -88t132.5 -212q46 122 146 211t219 89q9 0 16 -0.5t8 -0.5l-14 -78q-62 -7 -118.5 -43t-95 -87.5t-64.5 -105.5t-37 -104q-12 -67 -12 -137q0 -149 11 -204q-20 2 -62 2q-55 0 -83 -4q9 72 9 205q0 95 -13 152
q-17 84 -70 169q-92 145 -238 160zM-43 510l47 251q31 0 106 3q-1 -3 -40.5 -107t-56.5 -143z" />
    <glyph glyph-name="Omegatonos" unicode="&#x38f;" horiz-adv-x="985" 
d="M108 -6q9 47 9 122q33 -19 105 -27q68 -6 140 -6q-36 17 -68 41t-66 63.5t-54.5 99t-20.5 131.5q0 150 105.5 249.5t284.5 99.5q167 0 268.5 -98t101.5 -242q0 -63 -17 -117t-39.5 -88t-56.5 -64.5t-55.5 -44t-49.5 -28.5q92 1 151 7q77 8 106 24q-4 -17 -14 -122
q-18 6 -113 6h-193q-35 0 -55 -2q2 8 8.5 38t9.5 45q80 44 128 124.5t48 195.5q0 138 -66.5 214t-179.5 76q-100 0 -165.5 -70.5t-65.5 -201.5q0 -114 44.5 -201.5t115.5 -137.5q4 -19 6 -82q-29 3 -63 2h-173q-97 0 -116 -6zM-42 504l47 251q28 0 106 3q-3 -7 -42 -109.5
t-55 -140.5z" />
    <glyph glyph-name="iotadieresistonos" unicode="&#x390;" horiz-adv-x="359" 
d="M119 244v150q0 205 -10 245q10 -2 57 -2q65 0 83 4q-8 -88 -8 -247v-150q0 -209 10 -246q-20 2 -60 2q-44 0 -80 -3q8 54 8 247zM140 827l43 163q53 -15 100 -22q-26 -38 -92 -157zM304 700q-29 0 -44 15.5t-15 35.5t15 35.5t44 15.5q26 0 42.5 -13t16.5 -35
q0 -25 -15.5 -39.5t-43.5 -14.5zM54 700q-29 0 -43 15t-14 36t14.5 36t43.5 15q26 0 42.5 -13t16.5 -35q0 -25 -15.5 -39.5t-44.5 -14.5z" />
    <glyph glyph-name="Alpha" unicode="&#x391;" horiz-adv-x="722" 
d="M464 220h-248q-4 0 -5 -3q-58 -157 -74 -219q-26 2 -57 2q-52 0 -74 -4q43 84 118 257l200 466q22 48 29 48q9 0 30 -48q148 -330 201 -452q96 -217 132 -269q-52 2 -65 2q-61 0 -93 -4q-31 85 -90 221q-2 3 -4 3zM243 302h190q4 0 3 4l-100 248l-95 -248q-1 -4 2 -4z
" />
    <glyph glyph-name="Beta" unicode="&#x392;" horiz-adv-x="700" 
d="M260 669v-221q0 -5 4 -6q29 -3 100 -3q33 0 46 10q50 36 50 103q0 58 -36.5 92.5t-104.5 34.5q-46 0 -56 -4q-3 -1 -3 -6zM510 209q0 69 -53 113q-41 38 -120 41q-57 2 -74 0q-3 -1 -3 -4v-71q0 -190 4 -196q20 -22 102 -22q60 0 102 36t42 103zM136 287v176
q0 232 -12 289q30 -2 59 -2q23 0 77 1.5t87 1.5q66 0 113 -16t71 -43.5t34 -55.5t10 -59q0 -54 -28.5 -95t-69.5 -62q76 -23 121 -73.5t45 -125.5q0 -97 -73.5 -163.5t-207.5 -66.5q-15 0 -155 7q-26 0 -80 -3q9 77 9 290z" />
    <glyph glyph-name="Gamma" unicode="&#x393;" horiz-adv-x="547" 
d="M137 287v176q0 227 -12 289q28 -2 83 -2h229q77 0 103 6q-6 -34 -9 -107q-24 10 -89 15q-66 4 -173 4q-5 0 -5 -6q-1 -48 -1 -230v-145q0 -234 10 -289q-18 2 -65 2q-57 0 -81 -4q10 68 10 291z" />
    <glyph glyph-name="uni0394" unicode="&#x394;" horiz-adv-x="746" 
d="M375 767q7 0 25 -39q42 -91 147.5 -319t156.5 -341q23 -49 23 -60q0 -10 -20 -10q-110 2 -214 2h-263q-148 0 -197 -2q-14 0 -14 7q0 5 10 26l301 661q27 54 33 64.5t12 10.5zM355 540q-2 0 -12 -21q-23 -54 -51.5 -122.5t-65.5 -158t-59 -141.5q-2 -5 3 -7
q8 -2 189.5 -2t191.5 2q6 1 3 8l-187 422q-8 20 -12 20z" />
    <glyph glyph-name="Epsilon" unicode="&#x395;" horiz-adv-x="601" 
d="M138 287v176q0 240 -13 289q17 -2 79 -2h234q73 0 92 6q-10 -50 -10 -112q-23 14 -93 20q-66 4 -160 4q-4 0 -4 -3v-222q0 -5 4 -5q121 0 154 1q71 2 91 9q-11 -59 -9 -113q-27 14 -77 18q-66 4 -159 4q-4 0 -4 -4v-55q0 -202 7 -208q5 -5 23 -7q36 -4 96 -4
q122 0 171 23q-15 -49 -24 -105q-5 -4 -56 -4q-78 0 -164 3.5t-103 3.5q-64 0 -85 -3q10 123 10 290z" />
    <glyph glyph-name="Zeta" unicode="&#x396;" horiz-adv-x="667" 
d="M72 759q45 -9 234 -9h306q23 0 23 -4q0 -6 -11 -25q-282 -449 -410 -642h202q179 0 228 27q-5 -14 -16 -56t-14 -51q-5 -3 -61 -3q-79 0 -243 2t-271 2q-14 0 -14 4t21 36q160 241 407 632h-159q-179 0 -242 -33q14 42 20 120z" />
    <glyph glyph-name="Eta" unicode="&#x397;" horiz-adv-x="908" 
d="M138 287v176q0 222 -13 289q24 -2 62 -2q54 0 84 4q-8 -96 -8 -276v-16q0 -4 4 -4h378q4 0 4 4v16q0 198 -10 274q28 -2 63 -2q55 0 82 4q-9 -86 -9 -291v-176q0 -206 9 -289q-24 2 -63 2q-54 0 -82 -4q10 72 10 291v74q0 4 -4 4h-379q-3 0 -3 -4v-74q0 -197 10 -289
q-22 2 -57 2q-58 0 -88 -4q10 88 10 291z" />
    <glyph glyph-name="Theta" unicode="&#x398;" horiz-adv-x="915" 
d="M287 332q7 29 17 108q44 -7 165 -7q120 0 162 6q-11 -37 -18 -108q-47 7 -163 7q-130 0 -163 -6zM452 -17q-98 0 -176 35t-123 92t-68.5 123t-23.5 136q0 77 26 147t74.5 126.5t127 90.5t176.5 34q175 0 282 -107.5t107 -265.5q0 -178 -108.5 -294.5t-293.5 -116.5z
M478 62q40 0 78 14.5t75 46.5t59.5 94t22.5 146q0 138 -74.5 232t-198.5 94q-106 0 -172 -77.5t-66 -212.5q1 -147 75 -242t201 -95z" />
    <glyph glyph-name="Iota" unicode="&#x399;" horiz-adv-x="397" 
d="M136 287v176q0 245 -11 289q11 -2 60 -2q66 0 86 4q-9 -86 -9 -291v-176q0 -242 11 -289q-22 2 -62 2q-58 0 -84 -4q9 72 9 291z" />
    <glyph glyph-name="Kappa" unicode="&#x39a;" horiz-adv-x="757" 
d="M521 85q-89 97 -255 304q-2 5 1 10q104 96 212 230q31 35 60 73.5t34 50.5q18 -3 44 -3q76 0 116 4q-66 -52 -137 -123q-173 -177 -207 -218q80 -104 254 -285q107 -108 149 -125q-14 -9 -75 -9q-67 0 -106.5 17t-89.5 74zM136 287v176q0 246 -11 289q22 -2 60 -2
q52 0 86 4q-9 -88 -9 -291v-176q0 -242 11 -289q-22 2 -55 2q-61 0 -91 -4q9 70 9 291z" />
    <glyph glyph-name="Lambda" unicode="&#x39b;" horiz-adv-x="722" 
d="M471 217l-135 320l-124 -320q-53 -140 -74 -219q-28 2 -58 2q-52 0 -74 -4q43 84 118 257l200 466q23 48 30 48q8 0 29 -48q4 -8 36 -80t79.5 -178t85.5 -194q96 -217 132 -269q-52 2 -65 2q-61 0 -93 -4q-34 92 -87 221z" />
    <glyph glyph-name="Mu" unicode="&#x39c;" horiz-adv-x="1044" 
d="M92 -4q19 79 81 601q10 94 19 154q2 16 8 16q4 0 14 -17q12 -17 46.5 -78t47.5 -82l217 -385l181 326q73 117 120 207q18 29 25 29t10 -30q3 -27 9 -81.5t8 -74.5q55 -513 74 -583q-20 2 -62 2q-63 0 -86 -4q0 33 -5.5 117t-14 199.5t-12.5 174.5q-18 -34 -117 -217.5
t-140 -269.5q-8 -18 -16 -1q-42 89 -129 255.5t-118 231.5q-3 -46 -12 -172.5t-14 -204.5t-5 -111q-15 2 -54 2q-47 0 -75 -4z" />
    <glyph glyph-name="Nu" unicode="&#x39d;" horiz-adv-x="920" 
d="M249 -2q-19 2 -59 2q-52 0 -70 -4q7 61 11.5 306t4.5 409q0 56 9 56q7 0 34 -26q33 -32 240.5 -244t268.5 -264q-4 399 -14 519q20 -2 54 -2q56 0 72 4q-6 -49 -11 -211t-4 -337v-147q0 -79 -10 -79q-9 0 -101 87q-50 47 -213 219t-228 235q4 -432 16 -523z" />
    <glyph glyph-name="Xi" unicode="&#x39e;" horiz-adv-x="622" 
d="M445 650h-261q-84 0 -117 -20q9 36 13 126q19 -6 112 -6h267q93 0 112 6q-9 -47 -9 -126q-33 20 -117 20zM116 324q10 52 13 120q38 -9 116 -9h146q85 0 116 9q-9 -45 -9 -120q-33 11 -109 11h-165q-79 0 -108 -11zM199 100h238q106 0 139 20q-14 -72 -17 -126
q-18 6 -124 6h-264q-106 0 -124 -6q11 58 11 126q33 -20 141 -20z" />
    <glyph glyph-name="Omicron" unicode="&#x39f;" horiz-adv-x="915" 
d="M452 -17q-98 0 -175.5 35t-123 92t-69 123.5t-23.5 135.5q0 77 26 147t74.5 126.5t127 90.5t176.5 34q176 0 283 -107.5t107 -265.5q0 -178 -108.5 -294.5t-294.5 -116.5zM478 62q40 0 78 14.5t75 46.5t59.5 94t22.5 146q0 138 -74.5 232t-198.5 94q-106 0 -172 -77.5
t-65 -212.5q0 -147 74 -242t201 -95z" />
    <glyph glyph-name="Pi" unicode="&#x3a0;" horiz-adv-x="909" 
d="M136 287v176q0 239 -11 289q20 -2 74 -2h498q66 0 86 4q-10 -76 -10 -291v-176q0 -215 11 -289q-26 2 -64 2q-58 0 -82 -4q10 86 10 291v209q0 143 -1 164q0 8 -7 8h-372q-5 0 -5 -6t-0.5 -66.5t-0.5 -83.5v-225q0 -218 11 -289q-22 2 -64 2q-54 0 -82 -4q9 66 9 291z
" />
    <glyph glyph-name="Rho" unicode="&#x3a1;" horiz-adv-x="665" 
d="M136 287v176q0 229 -11 289q14 -2 53 -2q15 0 65 2t85 2q89 0 141 -17t90 -51q60 -54 60 -145q0 -108 -78 -171.5t-192 -61.5q-13 53 -19 68q165 10 165 149q0 84 -59 123q-41 36 -117 36q-38 0 -52 -4q-5 -2 -5 -22v-375q0 -202 9 -285q-30 2 -67 2q-52 0 -78 -4
q10 86 10 291z" />
    <glyph glyph-name="Sigma" unicode="&#x3a3;" horiz-adv-x="681" 
d="M651 103q-16 -56 -22 -106q-10 -4 -68 -4q-69 0 -247.5 3.5t-207.5 3.5q-17 0 -45.5 -0.5t-30.5 -0.5q-10 0 -3 9q35 49 154.5 187t136.5 162q2 2 -1 5q-14 25 -99.5 136t-152.5 195q-9 11 -19 23t-14.5 18t-6.5 9q-5 9 9 9q8 0 44 -1t60 -1h391q63 0 92 6
q-9 -47 -9 -112q-22 14 -94 20q-66 4 -281 4q-5 0 -2 -3q11 -18 99.5 -130t114.5 -141q6 -6 0 -12q-63 -69 -239 -291q-6 -6 1 -6q28 -6 245 -6q151 0 195 24z" />
    <glyph glyph-name="Tau" unicode="&#x3a4;" horiz-adv-x="680" 
d="M2 647q13 44 20 113q39 -10 161 -10h333q128 0 160 9q-11 -49 -13 -119q-27 18 -111 24q-48 4 -154 4v-381q0 -203 10 -289q-26 2 -57 2q-57 0 -88 -4q9 72 9 291v381q-90 0 -133 -2q-99 -5 -137 -19z" />
    <glyph glyph-name="Upsilon" unicode="&#x3a5;" horiz-adv-x="771" 
d="M-7 682l10 75q2 0 12 0.5t19 0.5q129 0 224 -88t133 -212q46 122 146 211t219 89q8 0 15 -0.5t9 -0.5l-14 -78q-62 -7 -118.5 -43t-95.5 -87.5t-65 -105.5t-36 -104q-12 -67 -12 -137q0 -157 11 -204q-22 2 -62 2q-54 0 -84 -4q9 72 9 205q0 94 -12 152q-17 81 -71 169
q-90 145 -237 160z" />
    <glyph glyph-name="Phi" unicode="&#x3a6;" horiz-adv-x="952" 
d="M539 603v-455q0 -4 3 -4q96 5 154.5 63.5t58.5 162.5q0 111 -56 169t-158 67q-2 0 -2 -3zM419 149v457q0 3 -2 3q-106 -4 -163 -63t-57 -151q0 -106 59.5 -172t158.5 -77q4 0 4 3zM412 -29q4 48 4 91q0 4 -2 4q-177 12 -265 99t-88 212q0 121 86.5 208t268.5 100q3 0 3 3
q0 42 -6 90q30 -2 60 -2q29 0 73 4q-5 -37 -6 -92q0 -3 3 -3q172 -9 260 -90t88 -212q0 -143 -91.5 -224t-256.5 -93q-3 0 -3 -3q0 -59 5 -91q-38 2 -59 2q-32 0 -74 -3z" />
    <glyph glyph-name="Chi" unicode="&#x3a7;" horiz-adv-x="672" 
d="M140 -2q-26 2 -57 2q-47 0 -83 -4q54 63 127 172l143 216l-133 214q-68 109 -116 154q52 -2 92 -2q45 0 77 4q19 -41 68.5 -127t90.5 -148q36 52 86 134q65 109 74 139q12 -2 50 -2q41 0 89 4q-41 -42 -107 -138l-145 -208q32 -55 122 -199q101 -160 154 -211
q-17 2 -78 2q-90 0 -105 -4q-8 26 -62 124q-25 43 -58 103t-49 87l-117 -193q-21 -35 -63 -119z" />
    <glyph glyph-name="Psi" unicode="&#x3a8;" horiz-adv-x="860" 
d="M7 684v69q24 4 42 4q99 0 136 -64q7 -13 15 -39.5t12.5 -46.5t12.5 -56.5t9 -42.5q29 -135 136 -145v100q0 250 -13 295q24 -2 56 -2q56 0 88 4q-9 -88 -9 -297v-101q51 2 83 32.5t48 102.5q3 13 10 49.5t14 66.5t14 45q43 99 154 99q20 0 38 -4l-6 -68q-40 -3 -60 -33
t-35 -109q-12 -65 -35 -112.5t-46.5 -73t-59.5 -43t-59 -22.5t-60 -11v-26q0 -210 11 -257q-20 2 -60 2q-62 0 -83 -4q10 80 10 259v26q-52 5 -90 17.5t-76 39.5t-64 76t-39 121q-13 64 -24.5 94.5t-26 41t-43.5 13.5z" />
    <glyph glyph-name="uni03A9" unicode="&#x3a9;" horiz-adv-x="909" 
d="M33 -6q9 47 9 122q33 -20 104 -27q69 -6 140 -6q-36 17 -68 41t-66 63.5t-54.5 99t-20.5 131.5q0 149 106 249t284 100q167 0 269 -98t102 -242q0 -63 -17 -117t-39.5 -88t-57 -64.5t-56 -44t-49.5 -28.5q93 1 151 7q79 8 106 24q-9 -39 -13 -122q-19 6 -113 6h-194
q-34 0 -54 -2q2 13 8.5 43t8.5 40q80 44 128 124.5t48 195.5q0 139 -66.5 214.5t-179.5 75.5q-100 0 -165.5 -70.5t-65.5 -201.5q0 -114 45 -201.5t115 -137.5q5 -18 7 -82q-31 3 -63 2h-173q-98 0 -116 -6z" />
    <glyph glyph-name="Iotadieresis" unicode="&#x3aa;" horiz-adv-x="397" 
d="M136 287v176q0 245 -11 289q11 -2 60 -2q66 0 86 4q-9 -86 -9 -291v-176q0 -242 11 -289q-22 2 -62 2q-58 0 -84 -4q9 72 9 291zM311 835q-29 0 -43.5 16.5t-14.5 39.5q0 21 14.5 38.5t43.5 17.5q27 0 43.5 -15t16.5 -39q0 -27 -16 -42.5t-44 -15.5zM84 835
q-29 0 -43 16.5t-14 39.5q0 22 14.5 38t43.5 16q26 0 42.5 -14t16.5 -38q0 -27 -15.5 -42.5t-44.5 -15.5z" />
    <glyph glyph-name="Upsilondieresis" unicode="&#x3ab;" horiz-adv-x="771" 
d="M-7 682l10 75q2 0 12 0.5t19 0.5q129 0 224 -88t133 -212q46 122 146 211t219 89q8 0 15 -0.5t9 -0.5l-14 -78q-62 -7 -118.5 -43t-95.5 -87.5t-65 -105.5t-36 -104q-12 -67 -12 -137q0 -157 11 -204q-22 2 -62 2q-54 0 -84 -4q9 72 9 205q0 94 -12 152q-17 81 -71 169
q-90 145 -237 160zM475 819q-29 0 -43.5 16.5t-14.5 38.5q0 21 14.5 38.5t43.5 17.5q27 0 43.5 -14.5t16.5 -39.5q0 -26 -16 -41.5t-44 -15.5zM248 819q-29 0 -43 16.5t-14 38.5t14.5 38t43.5 16q26 0 42.5 -14t16.5 -38q0 -27 -15.5 -42t-44.5 -15z" />
    <glyph glyph-name="alphatonos" unicode="&#x3ac;" horiz-adv-x="645" 
d="M409 175h-214q-4 0 -4 -3q-47 -120 -61 -174q-26 2 -54 2q-39 0 -72 -3q22 40 107 222l171 391q21 42 28 42q8 0 27 -42q43 -86 185 -384q99 -203 118 -228q-52 2 -62 2q-43 0 -91 -3q-33 86 -74 175q0 3 -4 3zM222 251h158q3 0 3 4l-85 197l-78 -197q-1 -4 2 -4z
M-28 407l47 251q28 0 106 3q-5 -11 -43 -112t-54 -138z" />
    <glyph glyph-name="epsilontonos" unicode="&#x3ad;" horiz-adv-x="621" 
d="M200 244v150q0 206 -12 245q17 -2 76 -2h209q67 0 83 5q-7 -63 -7 -103q-25 13 -86 18q-60 4 -138 4q-3 0 -3 -3v-178q0 -5 3 -5q104 0 134 1q60 2 83 8q-9 -42 -9 -104q-22 13 -70 17q-44 3 -138 3q-3 0 -3 -4v-41q0 -167 6 -172q3 -4 20 -6q48 -4 86 -4q107 0 151 20
q-15 -43 -22 -96q-6 -3 -51 -3q-67 0 -144.5 3t-95.5 3q-53 0 -81 -2q9 93 9 246zM-41 395l46 251q29 0 107 3q-6 -14 -44 -114t-54 -136z" />
    <glyph glyph-name="etatonos" unicode="&#x3ae;" horiz-adv-x="891" 
d="M205 244v150q0 192 -12 245q22 -2 60 -2q52 0 80 4q-7 -109 -7 -233v-12q0 -5 3 -5h320q4 0 4 5v12q0 157 -9 231q26 -2 60 -2q52 0 79 4q-9 -59 -9 -247v-150q0 -174 9 -246q-22 2 -61 2q-63 0 -78 -3q9 83 9 247v57q0 4 -3 4h-321q-3 0 -3 -4v-57q0 -156 9 -246
q-20 2 -55 2q-45 0 -84 -3q9 83 9 247zM-35 395l46 251q29 0 107 3q-5 -11 -43 -112t-54 -138z" />
    <glyph glyph-name="iotatonos" unicode="&#x3af;" horiz-adv-x="457" 
d="M217 244v150q0 205 -10 245q10 -2 57 -2q65 0 83 4q-8 -88 -8 -247v-150q0 -209 10 -246q-20 2 -60 2q-44 0 -80 -3q8 54 8 247zM-36 395l47 251q31 0 106 3q-4 -8 -42 -110t-55 -140z" />
    <glyph glyph-name="upsilondieresistonos" unicode="&#x3b0;" horiz-adv-x="675" 
d="M-4 570l10 73q6 1 19 1q118 0 200 -72.5t116 -172.5q40 99 126 172t195 73q12 0 16 -1l-12 -76q-104 -14 -176 -97.5t-95 -181.5q-8 -35 -8 -105q0 -127 9 -185q-20 2 -59 2q-37 0 -79 -3q7 60 7 185q0 80 -8 111q-14 83 -62 154q-73 112 -199 123zM285 833l43 162
q53 -15 100 -22q-25 -38 -92 -157zM449 705q-29 0 -44 15.5t-15 35.5t15 36t44 16q26 0 42.5 -13.5t16.5 -35.5q0 -24 -16 -39t-43 -15zM199 705q-29 0 -43 15t-14 36t14.5 36t43.5 15q26 0 42.5 -13t16.5 -35q0 -25 -15.5 -39.5t-44.5 -14.5z" />
    <glyph glyph-name="alpha" unicode="&#x3b1;" horiz-adv-x="645" 
d="M409 175h-214q-4 0 -4 -3q-47 -120 -61 -174q-26 2 -54 2q-39 0 -72 -3q22 40 107 222l171 391q21 42 28 42q8 0 27 -42q43 -86 185 -384q99 -203 118 -228q-52 2 -62 2q-43 0 -91 -3q-33 86 -74 175q0 3 -4 3zM222 251h158q3 0 3 4l-85 197l-78 -197q-1 -4 2 -4z" />
    <glyph glyph-name="beta" unicode="&#x3b2;" horiz-adv-x="633" 
d="M239 562v-179q0 -4 4 -5q17 -2 84 -2q30 0 43 8q41 28 41 83q0 47 -31 75.5t-89 28.5q-39 0 -49 -4q-3 -1 -3 -5zM453 178q0 55 -43 92q-36 32 -106 35q-47 2 -61 0q-4 -1 -4 -4v-56q0 -153 5 -160q16 -19 89 -19q49 0 84.5 29.5t35.5 82.5zM120 244v150q0 184 -11 245
q24 -2 55 -2q22 0 70.5 1.5t81.5 1.5q113 0 159.5 -44t46.5 -104q0 -46 -25 -80.5t-62 -51.5q146 -44 146 -170q0 -83 -66.5 -139.5t-185.5 -56.5q-39 0 -141 6q-25 0 -76 -3q8 76 8 247z" />
    <glyph glyph-name="gamma" unicode="&#x3b3;" horiz-adv-x="494" 
d="M123 244v150q0 186 -11 245q26 -2 79 -2h202q69 0 96 5q-5 -30 -9 -98q-24 10 -81 13q-60 4 -149 4q-4 0 -4 -6q-1 -44 -1 -191v-120q0 -196 9 -246q-16 2 -62 2q-42 0 -78 -3q9 65 9 247z" />
    <glyph glyph-name="delta" unicode="&#x3b4;" horiz-adv-x="675" 
d="M341 652q7 0 23 -31q42 -88 135.5 -281t135.5 -282q21 -46 21 -53t-19 -7q-98 2 -203 2h-226q-133 0 -177 -2q-12 0 -12 5q0 4 10 23l272 562q34 64 40 64zM322 447q-3 0 -12 -19q-113 -259 -149 -343q-2 -5 2 -5q13 -2 155 -2.5t167 2.5q5 0 3 5l-155 343q-9 19 -11 19z
" />
    <glyph glyph-name="epsilon" unicode="&#x3b5;" horiz-adv-x="542" 
d="M121 244v150q0 200 -12 245q17 -2 75 -2h209q67 0 84 5q-8 -48 -8 -103q-25 13 -86 18q-60 4 -138 4q-3 0 -3 -3v-178q0 -5 3 -5q105 0 135 1q61 2 82 8q-9 -42 -9 -104q-22 13 -70 17q-44 3 -138 3q-3 0 -3 -4v-41q0 -166 6 -172q4 -4 20 -6q48 -4 86 -4q107 0 151 20
q-16 -51 -22 -96q-6 -3 -51 -3q-67 0 -144 3t-95 3q-54 0 -82 -2q10 78 10 246z" />
    <glyph glyph-name="zeta" unicode="&#x3b6;" horiz-adv-x="597" 
d="M66 646q41 -9 208 -9h274q20 0 20 -4q0 -3 -10 -23q-184 -286 -351 -535h161q168 0 207 23q-2 -5 -28 -99q-4 -2 -54 -2q-69 0 -214.5 1.5t-242.5 1.5q-11 0 -11 5t17 31q176 256 351 528h-129q-168 0 -216 -30q10 45 18 112z" />
    <glyph glyph-name="eta" unicode="&#x3b7;" horiz-adv-x="807" 
d="M121 244v150q0 192 -12 245q22 -2 60 -2q52 0 80 4q-7 -108 -7 -233v-12q0 -5 3 -5h320q4 0 4 5v12q0 157 -9 231q26 -2 60 -2q52 0 79 4q-9 -59 -9 -247v-150q0 -174 9 -246q-22 2 -61 2q-63 0 -78 -3q9 83 9 247v57q0 4 -3 4h-321q-3 0 -3 -4v-57q0 -156 9 -246
q-20 2 -55 2q-45 0 -84 -3q9 83 9 247z" />
    <glyph glyph-name="theta" unicode="&#x3b8;" 
d="M263 275q4 14 15 103q45 -5 141 -5q105 0 137 5q-7 -27 -18 -104q-34 6 -138 6q-94 0 -137 -5zM403 -14q-88 0 -156.5 29.5t-109 78t-61 105t-20.5 115.5q0 64 22.5 123.5t65 108t112.5 77.5t157 29q157 0 252 -91.5t95 -225.5q0 -151 -96 -250t-261 -99zM428 58
q26 0 52 6.5t53 24t47.5 44.5t33.5 72t13 102q0 114 -63.5 193.5t-173.5 79.5q-89 0 -145.5 -62.5t-56.5 -176.5q1 -123 64.5 -203t175.5 -80z" />
    <glyph glyph-name="iota" unicode="&#x3b9;" horiz-adv-x="359" 
d="M119 244v150q0 205 -10 245q10 -2 57 -2q65 0 83 4q-8 -88 -8 -247v-150q0 -209 10 -246q-20 2 -60 2q-44 0 -80 -3q8 54 8 247z" />
    <glyph glyph-name="kappa" unicode="&#x3ba;" horiz-adv-x="680" 
d="M506 640q14 -3 41 -3q40 0 112 4q-61 -45 -123 -107q-150 -150 -176 -181q72 -91 220 -243q94 -92 131 -107q-13 -9 -70 -9q-66 0 -102.5 15t-84.5 70q-57 61 -211 251q-3 6 0 9q97 88 183 196q25 27 50 60.5t30 44.5zM119 244v150q0 205 -10 245q20 -2 57 -2q51 0 83 4
q-8 -88 -8 -247v-150q0 -209 10 -246q-20 2 -53 2q-57 0 -87 -4q8 56 8 248z" />
    <glyph glyph-name="lambda" unicode="&#x3bb;" horiz-adv-x="645" 
d="M416 173l-117 266l-102 -252q-49 -126 -66 -189q-28 2 -55 2q-39 0 -72 -3q38 72 109 222l176 391q20 42 28 42t27 -42q2 -4 32 -68t71.5 -152.5t75.5 -163.5q84 -183 117 -228q-52 2 -62 2q-43 0 -91 -3q-15 43 -71 176z" />
    <glyph glyph-name="uni03BC" unicode="&#x3bc;" horiz-adv-x="921" 
d="M78 -3q22 95 73 508q11 82 17 131q3 16 8 16q6 0 14 -14q10 -14 41.5 -66t42.5 -68l190 -317l153 265q71 105 109 174q17 26 24 26t9 -24q14 -122 16 -135q51 -435 68 -495q-18 2 -59 2q-56 0 -82 -3q0 28 -5 99.5t-13 172.5t-10 133q-130 -227 -220 -404q-8 -14 -16 -1
q-35 73 -113.5 216t-99.5 184q-24 -331 -25 -399q-13 2 -51 2q-35 0 -71 -3z" />
    <glyph glyph-name="nu" unicode="&#x3bd;" 
d="M229 -2q-18 2 -57 2q-45 0 -66 -3q5 54 9.5 265t4.5 343q0 22 1 32t2.5 12.5t4.5 2.5q8 0 31 -22q16 -14 198 -189.5t246 -223.5q0 276 -13 423q13 -3 51 -3q54 0 70 4q-14 -92 -16 -474q0 -26 0.5 -77.5t0.5 -61.5q0 -29 -2 -37t-7 -8q-10 0 -94 74q-52 44 -197 188.5
t-182 177.5q2 -338 15 -425z" />
    <glyph glyph-name="xi" unicode="&#x3be;" horiz-adv-x="558" 
d="M391 542h-218q-84 0 -111 -18q9 41 13 119q19 -6 112 -6h212q94 0 112 6q-9 -47 -9 -119q-27 18 -111 18zM110 273q11 45 14 110q27 -8 112 -8h100q87 0 111 8q-8 -51 -8 -110q-28 7 -105 7h-119q-85 0 -105 -7zM172 95h226q86 0 116 18q-10 -46 -13 -119q-18 6 -112 6
h-231q-97 0 -116 -6q9 47 9 119q30 -18 121 -18z" />
    <glyph glyph-name="omicron" unicode="&#x3bf;" 
d="M404 -14q-71 0 -130 19.5t-98.5 52t-67 75.5t-40 88.5t-12.5 92.5q0 65 22.5 124.5t65.5 107.5t113 77t157 29q157 0 251 -91.5t94 -225.5q0 -152 -95 -250.5t-260 -98.5zM423 58q34 0 66.5 11.5t63.5 38t50 78t19 121.5q0 113 -61.5 193t-167.5 80q-90 0 -145.5 -62.5
t-55.5 -176.5q1 -119 62.5 -201t168.5 -82z" />
    <glyph glyph-name="pi" unicode="&#x3c0;" horiz-adv-x="807" 
d="M119 244v150q0 201 -10 245q20 -2 71 -2h436q62 0 82 4q-9 -74 -9 -247v-150q0 -187 10 -246q-26 2 -62 2q-45 0 -78 -3q8 74 8 247v168v142q0 6 -6 6h-315q-4 0 -4 -4t-0.5 -56.5t-0.5 -71.5v-184q0 -178 10 -246q-20 2 -61 2q-40 0 -79 -3q8 59 8 247z" />
    <glyph glyph-name="rho" unicode="&#x3c1;" horiz-adv-x="598" 
d="M118 244v150q0 186 -9 245q12 -2 50 -2q15 0 59 2t76 2q143 0 210 -59q53 -45 53 -123q0 -94 -69 -148t-173 -54q-11 45 -18 62q141 8 141 125q0 68 -46 101q-36 31 -104 31q-35 0 -44 -4q-4 -1 -4 -18v-313q0 -183 9 -243q-30 2 -65 2q-39 0 -75 -3q9 67 9 247z" />
    <glyph glyph-name="uni03C2" unicode="&#x3c2;" horiz-adv-x="606" 
d="M578 94q-14 -52 -20 -97q-12 -3 -63 -3q-58 0 -214.5 3t-185.5 3q-18 0 -43 -0.5t-26 -0.5q-8 0 -2 8q50 52 138.5 154.5t115.5 139.5q1 3 -1 5q-23 44 -220 282q-31 36 -35 44q-1 4 1 5.5t8 1.5q8 0 41 -1t54 -1h340q57 0 85 5q-8 -48 -8 -103q-24 13 -89 18
q-40 4 -228 4q-4 0 -1 -3q9 -16 82 -106t96 -116q6 -6 1 -11q-58 -60 -203 -240q-5 -5 1 -6q27 -5 204 -5q132 0 172 20z" />
    <glyph glyph-name="sigma" unicode="&#x3c3;" horiz-adv-x="606" 
d="M578 94q-14 -52 -20 -97q-12 -3 -63 -3q-58 0 -214.5 3t-185.5 3q-18 0 -43 -0.5t-26 -0.5q-8 0 -2 8q50 52 138.5 154.5t115.5 139.5q1 3 -1 5q-23 44 -220 282q-31 36 -35 44q-1 4 1 5.5t8 1.5q8 0 41 -1t54 -1h340q57 0 85 5q-8 -48 -8 -103q-24 13 -89 18
q-40 4 -228 4q-4 0 -1 -3q9 -16 82 -106t96 -116q6 -6 1 -11q-58 -60 -203 -240q-5 -5 1 -6q27 -5 204 -5q132 0 172 20z" />
    <glyph glyph-name="tau" unicode="&#x3c4;" horiz-adv-x="612" 
d="M3 542q12 37 19 105q36 -10 145 -10h296q113 0 143 8q-10 -48 -12 -110q-25 16 -98 22q-70 4 -134 4v-315q2 -186 10 -248q-24 2 -55 2q-37 0 -85 -3q9 61 9 247v317q-60 0 -116 -2q-84 -4 -122 -17z" />
    <glyph glyph-name="upsilon" unicode="&#x3c5;" horiz-adv-x="675" 
d="M-4 570l10 73q6 1 19 1q118 0 200 -72.5t116 -172.5q40 99 126 172t195 73q12 0 16 -1l-12 -76q-104 -14 -176 -97.5t-95 -181.5q-8 -35 -8 -105q0 -127 9 -185q-20 2 -59 2q-37 0 -79 -3q7 60 7 185q0 80 -8 111q-14 83 -62 154q-73 112 -199 123z" />
    <glyph glyph-name="phi" unicode="&#x3c6;" horiz-adv-x="847" 
d="M483 506v-374q0 -3 3 -3q80 4 128 52t48 134q0 178 -176 193q-3 0 -3 -2zM368 134v375q0 3 -1 3q-88 -3 -135 -52t-47 -128q0 -84 49.5 -138.5t130.5 -62.5q3 -1 3 3zM362 -26q4 42 4 79q0 3 -3 3q-149 9 -228 81t-79 183q0 107 76 179t234 83q2 0 2 2q0 34 -6 78
q2 0 23.5 -1t33.5 -1q27 0 71 4q-5 -30 -6 -79q0 -3 2 -3q150 -9 228 -75.5t78 -175.5q0 -126 -80 -195t-225 -80q-3 0 -3 -2q0 -58 5 -79q-27 3 -56 3q-19 0 -71 -4z" />
    <glyph glyph-name="chi" unicode="&#x3c7;" horiz-adv-x="605" 
d="M134 -2q-24 2 -55 2q-25 0 -79 -3q39 42 114 147l126 182l-114 175q-63 99 -107 138q12 0 42 -1t47 -1q44 0 74 4q13 -30 55.5 -102t77.5 -124q49 68 71 103q59 97 65 121q14 -2 49 -2q40 0 84 4q-39 -41 -96 -119l-127 -174q21 -34 102 -163q91 -137 143 -187
q-17 2 -76 2q-87 0 -101 -3q-4 10 -24.5 51t-28.5 55q-59 104 -89 153l-95 -153q-10 -16 -58 -105z" />
    <glyph glyph-name="psi" unicode="&#x3c8;" horiz-adv-x="772" 
d="M11 577v63q17 3 44 3q82 0 113 -57q8 -14 14 -34.5t9.5 -37t9.5 -46t10 -47.5q21 -102 117 -113v56q0 237 -12 279q22 -2 54 -2q62 0 86 3q-9 -74 -9 -280v-57q45 3 74 29.5t45 90.5q1 7 5 26.5t6 28.5t6 25t7 25.5t7 20.5t9 19q18 37 46.5 54t77.5 17q9 0 33 -2l-6 -64
q-32 -3 -46.5 -29t-31.5 -102q-11 -51 -30.5 -88.5t-41 -59.5t-51 -36.5t-53 -20.5t-56.5 -11v-19q0 -161 10 -213q-18 2 -59 2q-58 0 -79 -3q9 77 9 214v20q-44 5 -78 16t-69 34t-59 64.5t-35 101.5q-14 76 -28 101.5t-48 28.5z" />
    <glyph glyph-name="omega" unicode="&#x3c9;" horiz-adv-x="809" 
d="M31 -5q8 38 8 113q25 -16 95 -25q51 -5 119 -5q-31 14 -59 34t-58 52.5t-48 82.5t-18 110q0 128 93.5 211t251.5 83q147 0 238 -82.5t91 -201.5q0 -196 -189 -287q84 2 126 5q73 8 96 23q0 -1 -12 -113q-16 5 -103 5h-168q-33 0 -51 -2q2 12 8 38t8 38q67 37 107 104.5
t40 162.5q0 115 -58 178t-150 63q-84 0 -138 -57.5t-54 -167.5q0 -94 38 -168.5t97 -115.5q6 -28 8 -75q-28 3 -59 2h-153q-89 0 -106 -5z" />
    <glyph glyph-name="iotadieresis" unicode="&#x3ca;" horiz-adv-x="359" 
d="M119 244v150q0 205 -10 245q10 -2 57 -2q65 0 83 4q-8 -88 -8 -247v-150q0 -209 10 -246q-20 2 -60 2q-44 0 -80 -3q8 54 8 247zM293 728q-29 0 -44 16.5t-15 39.5q0 21 15 38.5t44 17.5q26 0 42.5 -15t16.5 -39q0 -27 -15.5 -42.5t-43.5 -15.5zM66 728q-29 0 -43.5 17
t-14.5 39t15 38t44 16q26 0 42.5 -14t16.5 -38q0 -27 -15.5 -42.5t-44.5 -15.5z" />
    <glyph glyph-name="upsilondieresis" unicode="&#x3cb;" horiz-adv-x="675" 
d="M-4 570l10 73q6 1 19 1q118 0 200 -72.5t116 -172.5q40 99 126 172t195 73q12 0 16 -1l-12 -76q-104 -14 -176 -97.5t-95 -181.5q-8 -35 -8 -105q0 -127 9 -185q-20 2 -59 2q-37 0 -79 -3q7 60 7 185q0 80 -8 111q-14 83 -62 154q-73 112 -199 123zM438 728
q-29 0 -44 16.5t-15 39.5q0 21 15 38.5t44 17.5q26 0 42.5 -15t16.5 -39q0 -27 -15.5 -42.5t-43.5 -15.5zM211 728q-29 0 -43.5 17t-14.5 39t15 38t44 16q26 0 42.5 -14t16.5 -38q0 -27 -15.5 -42.5t-44.5 -15.5z" />
    <glyph glyph-name="omicrontonos" unicode="&#x3cc;" horiz-adv-x="929" 
d="M519 -14q-71 0 -130 19.5t-98.5 52t-67 75.5t-40 88.5t-12.5 92.5q0 65 22.5 124.5t65 107.5t113 77t157.5 29q157 0 251 -91.5t94 -225.5q0 -152 -95 -250.5t-260 -98.5zM538 58q34 0 66.5 11.5t63.5 38t50 78t19 121.5q0 113 -61.5 193t-167.5 80q-90 0 -145.5 -62.5
t-55.5 -176.5q1 -119 62.5 -201t168.5 -82zM-31 395l46 251q29 0 107 3q-5 -11 -43 -112t-54 -138z" />
    <glyph glyph-name="upsilontonos" unicode="&#x3cd;" horiz-adv-x="865" 
d="M186 570l10 73q7 1 20 1q117 0 199.5 -72.5t116.5 -172.5q39 98 125 171.5t196 73.5q11 0 16 -1l-13 -76q-104 -14 -175.5 -97t-95.5 -182q-8 -35 -8 -105q0 -127 9 -185q-20 2 -59 2q-37 0 -79 -3q8 68 8 185q0 76 -9 111q-14 83 -62 154q-73 112 -199 123zM-44 395
l47 251q31 0 106 3q-4 -8 -42 -110t-55 -140z" />
    <glyph glyph-name="omegatonos" unicode="&#x3ce;" horiz-adv-x="911" 
d="M133 -5q8 38 8 113q25 -16 95 -25q51 -5 120 -5q-32 14 -60 34t-58 52.5t-48 82.5t-18 110q0 128 93.5 211t251.5 83q147 0 238 -82.5t91 -201.5q0 -196 -189 -287q84 1 127 5q72 8 95 23q0 -1 -12 -113q-16 5 -103 5h-168q-33 0 -51 -2q14 64 16 76q67 37 107.5 104.5
t40.5 162.5q0 115 -58 178t-150 63q-84 0 -138.5 -57.5t-54.5 -167.5q0 -94 38 -168.5t97 -115.5q6 -28 8 -75q-28 3 -59 2h-153q-89 0 -106 -5zM-40 395l47 251q28 0 106 3q-4 -8 -42 -110t-55 -140z" />
    <glyph glyph-name="uni03D7" unicode="&#x3d7;" 
d="M56 -188q4 24 7.5 70t1.5 67q25 -41 100.5 -71t172.5 -30q136 0 205.5 68.5t69.5 179.5q0 103 -74.5 167t-210.5 84q-30 4 -30 12q0 9 29 42q26 34 170 219q72 91 90 132q24 -2 44 -2q76 0 116 4q-51 -36 -131 -126q-179 -201 -190 -217q154 -31 237 -109t83 -200
q0 -144 -118.5 -244.5t-316.5 -100.5q-83 0 -152.5 16.5t-102.5 38.5zM142 287v176q0 246 -12 289q12 -2 60 -2q65 0 87 4q-10 -76 -10 -291v-176q0 -234 11 -289q-20 2 -62 2q-59 0 -83 -4q9 72 9 291z" />
    <glyph glyph-name="uni0400" unicode="&#x400;" horiz-adv-x="601" 
d="M138 287v176q0 240 -13 289q17 -2 79 -2h234q73 0 92 6q-10 -50 -10 -112q-23 14 -93 20q-66 4 -160 4q-4 0 -4 -3v-222q0 -5 4 -5q121 0 154 1q71 2 91 9q-11 -59 -9 -113q-27 14 -77 18q-66 4 -159 4q-4 0 -4 -4v-55q0 -202 7 -208q5 -5 23 -7q36 -4 96 -4
q122 0 171 23q-15 -49 -24 -105q-5 -4 -56 -4q-78 0 -164 3.5t-103 3.5q-64 0 -85 -3q10 123 10 290zM226 1006l180 -164l-34 -42q-186 116 -214 127q53 56 68 79z" />
    <glyph glyph-name="uni0401" unicode="&#x401;" horiz-adv-x="601" 
d="M138 287v176q0 240 -13 289q17 -2 79 -2h234q73 0 92 6q-10 -50 -10 -112q-23 14 -93 20q-66 4 -160 4q-4 0 -4 -3v-222q0 -5 4 -5q121 0 154 1q71 2 91 9q-11 -59 -9 -113q-27 14 -77 18q-66 4 -159 4q-4 0 -4 -4v-55q0 -202 7 -208q5 -5 23 -7q36 -4 96 -4
q122 0 171 23q-15 -49 -24 -105q-5 -4 -56 -4q-78 0 -164 3.5t-103 3.5q-64 0 -85 -3q10 123 10 290zM438 830q-29 0 -44 16.5t-15 38.5t15 39t44 17q26 0 42.5 -14.5t16.5 -38.5q0 -26 -15.5 -42t-43.5 -16zM211 830q-29 0 -43.5 16.5t-14.5 38.5q0 23 15 39t44 16
q25 0 41.5 -14t16.5 -38q0 -27 -15.5 -42.5t-43.5 -15.5z" />
    <glyph glyph-name="uni0402" unicode="&#x402;" horiz-adv-x="827" 
d="M555 -128l-42 56q124 89 124 239q0 101 -49.5 152.5t-129.5 51.5q-52 0 -86 -12v-73q0 -202 10 -288q-22 2 -58 2q-63 0 -87 -4q9 72 9 291v381q-45 0 -101 -2q-95 -4 -137 -19q13 45 20 113q39 -10 161 -10h360q127 0 159 9q-11 -49 -13 -119q-27 18 -111 24
q-48 4 -212 4v-236q56 14 123 14q123 0 195 -71t72 -188q0 -63 -20.5 -119t-53.5 -94t-66.5 -63.5t-66.5 -38.5z" />
    <glyph glyph-name="uni0403" unicode="&#x403;" horiz-adv-x="547" 
d="M137 287v176q0 227 -12 289q28 -2 83 -2h229q77 0 103 6q-6 -34 -9 -107q-24 10 -89 15q-66 4 -173 4q-5 0 -5 -6q-1 -48 -1 -230v-145q0 -234 10 -289q-18 2 -65 2q-57 0 -81 -4q10 68 10 291zM246 853l181 157q28 -41 67 -78q-42 -17 -214 -123z" />
    <glyph glyph-name="uni0404" unicode="&#x404;" horiz-adv-x="782" 
d="M718 16q-78 -33 -206 -33q-203 0 -327 108q-124 111 -124 295q0 168 114 274q118 107 316 107q46 0 90.5 -5.5t70 -11t55 -13.5t37.5 -10q-17 -61 -17 -128q-81 86 -250 86q-123 0 -197 -66q-70 -65 -79 -176q0 -5 5 -5q289 0 322 1q91 2 110 8q-9 -47 -9 -113
q-23 15 -97 18q-82 5 -327 5q-2 0 -2 -6q11 -125 97.5 -200t229.5 -75q135 0 211 55q-12 -37 -23 -115z" />
    <glyph glyph-name="uni0405" unicode="&#x405;" horiz-adv-x="536" 
d="M47 26q12 51 10 133q27 -36 76.5 -63t105.5 -27q59 0 89.5 30.5t30.5 78.5q0 39 -20 69t-78 68l-50 33q-78 50 -107.5 101.5t-29.5 112.5q0 87 63 146t170 59q43 0 101 -9q51 -9 63 -9q-9 -33 -9 -130q-57 66 -157 66q-50 0 -80.5 -27.5t-30.5 -68.5q0 -38 17.5 -65.5
t72.5 -64.5l49 -32q89 -59 121.5 -108t32.5 -113q0 -47 -23.5 -97.5t-73.5 -82.5q-67 -43 -161 -43q-51 0 -103 12t-79 31z" />
    <glyph glyph-name="uni0406" unicode="&#x406;" horiz-adv-x="397" 
d="M136 287v176q0 245 -11 289q11 -2 60 -2q66 0 86 4q-9 -86 -9 -291v-176q0 -242 11 -289q-22 2 -62 2q-58 0 -84 -4q9 72 9 291z" />
    <glyph glyph-name="uni0407" unicode="&#x407;" horiz-adv-x="397" 
d="M136 287v176q0 245 -11 289q11 -2 60 -2q66 0 86 4q-9 -86 -9 -291v-176q0 -242 11 -289q-22 2 -62 2q-58 0 -84 -4q9 72 9 291zM311 835q-29 0 -43.5 16.5t-14.5 39.5q0 21 14.5 38.5t43.5 17.5q27 0 43.5 -15t16.5 -39q0 -27 -16 -42.5t-44 -15.5zM84 835
q-29 0 -43 16.5t-14 39.5q0 22 14.5 38t43.5 16q26 0 42.5 -14t16.5 -38q0 -27 -15.5 -42.5t-44.5 -15.5z" />
    <glyph glyph-name="uni0408" unicode="&#x408;" horiz-adv-x="405" 
d="M278 463v-257q0 -121 -5.5 -179.5t-23.5 -102.5q-53 -136 -228 -141q-2 23 -13 63q72 15 103 52q25 33 33.5 93t8.5 212v260q0 229 -14 290q20 -3 58 -3q68 0 91 5q-10 -97 -10 -292z" />
    <glyph glyph-name="uni0409" unicode="&#x409;" horiz-adv-x="1029" 
d="M542 364q42 -103 104 -244q14 -30 27.5 -39.5t39.5 -9.5q55 0 90.5 36t35.5 94q0 85 -61 129q-50 39 -158 39q-41 0 -78 -5zM6 -4q21 41 119 258l199 466q22 47 30 47t30 -47q9 -22 125 -284q86 7 142 7q137 0 206 -37q115 -59 115 -184q0 -96 -69.5 -161.5t-199.5 -65.5
q-9 0 -43 1.5t-47 1.5q-37 0 -57 -3q-11 37 -65 170q-31 78 -152 367q-3 7 -6 0q-42 -110 -78.5 -206t-51 -134t-19.5 -51q-37 -108 -46 -143q-16 2 -58 2q-52 0 -74 -4z" />
    <glyph glyph-name="uni040A" unicode="&#x40a;" horiz-adv-x="1160" 
d="M716 364v-81v-107.5t1 -56t2 -25t4 -6.5q24 -18 100 -18q65 0 107 37t42 105q0 81 -59 123q-50 35 -159 35h-33q-5 0 -5 -6zM138 287v174q0 224 -13 291q22 -2 61 -2q55 0 83 4q-8 -72 -8 -281v-12q0 -8 5 -8h322q5 0 5 7v13q0 203 -10 279q22 -2 63 -2q59 0 79 4
q-9 -86 -9 -296q0 -5 4 -5h50q146 0 222 -41q111 -60 111 -183q0 -103 -77 -169.5t-214 -66.5q-59 0 -113.5 3.5t-67.5 3.5q-33 0 -47 -2q9 113 9 285v81q0 6 -5 6h-322q-5 0 -5 -9v-78q0 -181 9 -285q-22 2 -63 2q-51 0 -79 -4q10 88 10 291z" />
    <glyph glyph-name="uni040B" unicode="&#x40b;" horiz-adv-x="840" 
d="M246 287v381q-62 0 -101 -2q-99 -5 -137 -19q12 43 20 113q37 -10 161 -10h360q127 0 159 9q-11 -49 -13 -119q-27 18 -111 24q-48 4 -212 4v-247q69 26 156 26q130 0 187 -76q40 -47 40 -147q0 -152 11 -227q-21 3 -66 3q-56 0 -80 -4q10 86 10 219q0 80 -38.5 117.5
t-115.5 37.5q-65 0 -104 -18v-69q0 -199 10 -285q-28 2 -59 2q-58 0 -86 -4q9 72 9 291z" />
    <glyph glyph-name="uni040C" unicode="&#x40c;" horiz-adv-x="757" 
d="M521 85q-89 97 -255 304q-2 5 1 10q104 96 212 230q31 35 60 73.5t34 50.5q18 -3 44 -3q76 0 116 4q-66 -52 -137 -123q-173 -177 -207 -218q80 -104 254 -285q107 -108 149 -125q-14 -9 -75 -9q-67 0 -106.5 17t-89.5 74zM136 287v176q0 246 -11 289q22 -2 60 -2
q52 0 86 4q-9 -88 -9 -291v-176q0 -242 11 -289q-22 2 -55 2q-61 0 -91 -4q9 70 9 291zM331 853l181 157q28 -41 67 -78q-42 -17 -214 -123z" />
    <glyph glyph-name="uni040D" unicode="&#x40d;" horiz-adv-x="925" 
d="M265 754q-13 -90 -17 -535q61 61 219.5 237.5t210.5 226.5q88 87 99 87q4 0 6.5 -3t3.5 -15t1 -37q-1 -33 -1 -171q0 -432 15 -546q-42 2 -74 2q-40 0 -64 -4q14 146 14 536q-55 -49 -251 -262.5t-245 -260.5q-26 -26 -34 -26q-10 0 -10 38q0 175 -4 426.5t-11 304.5
q42 -2 65 -2q62 0 77 4zM358 1009l180 -164l-34 -42q-185 115 -214 128q41 39 68 78z" />
    <glyph glyph-name="uni040E" unicode="&#x40e;" horiz-adv-x="674" 
d="M311 -2q-30 2 -60 2q-47 0 -85 -4q60 69 126 191q6 10 1 20q-64 132 -199 381q-79 143 -101 164q21 -2 77 -2q49 0 91 4q0 -10 49 -117q131 -270 157 -320q84 174 150 342q28 65 31 93q32 -2 59 -2q39 0 73 4q-18 -30 -76 -151q-136 -286 -224 -461q-56 -110 -69 -144z
M143 888q12 32 21 88h4q18 -36 69.5 -63.5t125.5 -27.5q130 0 211 87h2l-7 -60q-37 -50 -98.5 -75t-129.5 -25q-67 0 -121.5 21.5t-76.5 54.5z" />
    <glyph glyph-name="uni040F" unicode="&#x40f;" horiz-adv-x="905" 
d="M137 286v176q0 209 -12 290q24 -2 66 -2q56 0 80 4q-8 -69 -8 -292v-151q0 -170 1 -221q0 -7 6 -7h364q7 0 7 8q2 40 2 220v151q0 186 -9 290q24 -2 62 -2q58 0 82 4q-9 -79 -9 -292v-176q0 -214 11 -288q-28 2 -66 2h-179q-17 0 -24 -15q-19 -43 -27 -142l-60 -5
q-7 97 -27 146q-4 10 -8.5 13t-17.5 3h-156q-65 0 -87 -3q9 83 9 289z" />
    <glyph glyph-name="uni0410" unicode="&#x410;" horiz-adv-x="722" 
d="M464 220h-248q-4 0 -5 -3q-58 -157 -74 -219q-26 2 -57 2q-52 0 -74 -4q43 84 118 257l200 466q22 48 29 48q9 0 30 -48q148 -330 201 -452q96 -217 132 -269q-52 2 -65 2q-61 0 -93 -4q-31 85 -90 221q-2 3 -4 3zM243 302h190q4 0 3 4l-100 248l-95 -248q-1 -4 2 -4z
" />
    <glyph glyph-name="uni0411" unicode="&#x411;" horiz-adv-x="701" 
d="M263 448q0 -5 4 -5h60q132 0 211 -41q108 -59 108 -185q0 -97 -76.5 -160.5t-212.5 -63.5q-48 0 -103.5 3.5t-67.5 3.5q-41 0 -55 -2q8 118 8 289v174q0 247 -11 291q12 -2 60 -2h230q138 0 159 6q-7 -30 -9 -112q-19 13 -114 21q-60 3 -184 3q-4 0 -4 -4q-3 -84 -3 -216
zM263 361v-74q0 -193 6 -198q22 -19 99 -19q62 0 103.5 37t41.5 101q0 79 -55 121q-51 38 -152 38q-26 0 -40 -2q-3 0 -3 -4z" />
    <glyph glyph-name="uni0412" unicode="&#x412;" horiz-adv-x="700" 
d="M260 669v-221q0 -5 4 -6q29 -3 100 -3q33 0 46 10q50 36 50 103q0 58 -36.5 92.5t-104.5 34.5q-46 0 -56 -4q-3 -1 -3 -6zM510 209q0 69 -53 113q-41 38 -120 41q-57 2 -74 0q-3 -1 -3 -4v-71q0 -190 4 -196q20 -22 102 -22q60 0 102 36t42 103zM136 287v176
q0 232 -12 289q30 -2 59 -2q23 0 77 1.5t87 1.5q66 0 113 -16t71 -43.5t34 -55.5t10 -59q0 -54 -28.5 -95t-69.5 -62q76 -23 121 -73.5t45 -125.5q0 -97 -73.5 -163.5t-207.5 -66.5q-15 0 -155 7q-26 0 -80 -3q9 77 9 290z" />
    <glyph glyph-name="uni0413" unicode="&#x413;" horiz-adv-x="547" 
d="M137 287v176q0 227 -12 289q28 -2 83 -2h229q77 0 103 6q-6 -34 -9 -107q-24 10 -89 15q-66 4 -173 4q-5 0 -5 -6q-1 -48 -1 -230v-145q0 -234 10 -289q-18 2 -65 2q-57 0 -81 -4q10 68 10 291z" />
    <glyph glyph-name="uni0414" unicode="&#x414;" horiz-adv-x="780" 
d="M198 85q10 -2 167 -2.5t167 2.5q5 1 4 7q-68 172 -165 418q-8 20 -12 20q-3 0 -12 -21q-127 -342 -152 -418q-2 -6 3 -6zM50 -112l-55 -7q1 128 -4 211q58 -7 90 -7q10 0 13 8l239 597q23 51 30.5 64t14.5 13q8 0 27 -41q45 -103 131.5 -310.5t135.5 -318.5q5 -9 11 -9
q71 0 119 5q-17 -125 -17 -204l-54 -8q-19 75 -39 100q-8 11 -22 14q-21 5 -102 5h-344q-94 0 -115 -4q-16 -2 -24 -15q-16 -22 -35 -93z" />
    <glyph glyph-name="uni0415" unicode="&#x415;" horiz-adv-x="601" 
d="M138 287v176q0 240 -13 289q17 -2 79 -2h234q73 0 92 6q-10 -50 -10 -112q-23 14 -93 20q-66 4 -160 4q-4 0 -4 -3v-222q0 -5 4 -5q121 0 154 1q71 2 91 9q-11 -59 -9 -113q-27 14 -77 18q-66 4 -159 4q-4 0 -4 -4v-55q0 -202 7 -208q5 -5 23 -7q36 -4 96 -4
q122 0 171 23q-15 -49 -24 -105q-5 -4 -56 -4q-78 0 -164 3.5t-103 3.5q-64 0 -85 -3q10 123 10 290z" />
    <glyph glyph-name="uni0416" unicode="&#x416;" horiz-adv-x="1084" 
d="M607 394v6q3 3 25 24q25 24 60 64.5t71.5 86t47.5 57.5q31 35 57 71.5t31 48.5q26 -2 50 -2q63 0 113 4q-55 -39 -135 -124q-168 -176 -199 -215q93 -118 248 -288q95 -101 145 -124q-15 -9 -80 -9q-64 0 -101.5 16.5t-84.5 68.5q-18 20 -41.5 48.5t-53.5 66.5t-50.5 65
t-55.5 73.5t-47 61.5zM603 468v-186q0 -238 11 -284q-22 2 -61 2q-49 0 -81 -4q9 68 9 466q0 249 -12 290q20 -2 60 -2q63 0 83 4q-9 -86 -9 -286zM477 399l-1 -7q-142 -194 -252 -315q-47 -52 -82.5 -67.5t-98.5 -15.5q-50 0 -79 9q43 20 141 125q216 238 252 283
q-34 44 -202 219q-71 73 -133 122q36 -2 70 -2q68 0 92 4q13 -31 90 -122q6 -7 70 -82t96 -112q27 -31 37 -39z" />
    <glyph glyph-name="uni0417" unicode="&#x417;" horiz-adv-x="591" 
d="M38 17q12 66 9 122q21 -25 72.5 -47.5t114.5 -22.5q73 0 121 34.5t48 107.5q0 76 -49.5 113t-126.5 37q-35 0 -59 -6q11 69 8 91q15 -3 46 -3q58 0 95.5 32t37.5 86q0 50 -31 85t-99 35q-50 0 -91 -17.5t-64 -43.5q4 51 -5 119q3 0 37.5 9t70.5 14t78 5q53 0 94.5 -12.5
t66.5 -31.5t41 -44t22 -48t6 -46q0 -115 -121 -164q-1 -2 0 -3q73 -17 123.5 -65t50.5 -132q0 -104 -83.5 -171t-221.5 -67q-108 0 -191 34z" />
    <glyph glyph-name="uni0418" unicode="&#x418;" horiz-adv-x="925" 
d="M265 754q-13 -90 -17 -535q61 61 219.5 237.5t210.5 226.5q88 87 99 87q4 0 6.5 -3t3.5 -15t1 -37q-1 -33 -1 -171q0 -432 15 -546q-42 2 -74 2q-40 0 -64 -4q14 146 14 536q-55 -49 -251 -262.5t-245 -260.5q-26 -26 -34 -26q-10 0 -10 38q0 175 -4 426.5t-11 304.5
q42 -2 65 -2q62 0 77 4z" />
    <glyph glyph-name="uni0419" unicode="&#x419;" horiz-adv-x="925" 
d="M265 754q-13 -90 -17 -535q61 61 219.5 237.5t210.5 226.5q88 87 99 87q4 0 6.5 -3t3.5 -15t1 -37q-1 -33 -1 -171q0 -432 15 -546q-42 2 -74 2q-40 0 -64 -4q14 146 14 536q-55 -49 -251 -262.5t-245 -260.5q-26 -26 -34 -26q-10 0 -10 38q0 175 -4 426.5t-11 304.5
q42 -2 65 -2q62 0 77 4zM253 896q12 35 21 88h4q18 -36 69.5 -63.5t125.5 -27.5q129 0 211 88l2 -1l-7 -60q-37 -49 -98.5 -74t-129.5 -25t-122 21t-76 54z" />
    <glyph glyph-name="uni041A" unicode="&#x41a;" horiz-adv-x="757" 
d="M521 85q-89 97 -255 304q-2 5 1 10q104 96 212 230q31 35 60 73.5t34 50.5q18 -3 44 -3q76 0 116 4q-66 -52 -137 -123q-173 -177 -207 -218q80 -104 254 -285q107 -108 149 -125q-14 -9 -75 -9q-67 0 -106.5 17t-89.5 74zM136 287v176q0 246 -11 289q22 -2 60 -2
q52 0 86 4q-9 -88 -9 -291v-176q0 -242 11 -289q-22 2 -55 2q-61 0 -91 -4q9 70 9 291z" />
    <glyph glyph-name="uni041B" unicode="&#x41b;" horiz-adv-x="722" 
d="M471 217l-135 320l-124 -320q-53 -140 -74 -219q-28 2 -58 2q-52 0 -74 -4q43 84 118 257l200 466q23 48 30 48q8 0 29 -48q4 -8 36 -80t79.5 -178t85.5 -194q96 -217 132 -269q-52 2 -65 2q-61 0 -93 -4q-34 92 -87 221z" />
    <glyph glyph-name="uni041C" unicode="&#x41c;" horiz-adv-x="1044" 
d="M92 -4q19 79 81 601q10 94 19 154q2 16 8 16q4 0 14 -17q12 -17 46.5 -78t47.5 -82l217 -385l181 326q73 117 120 207q18 29 25 29t10 -30q3 -27 9 -81.5t8 -74.5q55 -513 74 -583q-20 2 -62 2q-63 0 -86 -4q0 33 -5.5 117t-14 199.5t-12.5 174.5q-18 -34 -117 -217.5
t-140 -269.5q-8 -18 -16 -1q-42 89 -129 255.5t-118 231.5q-3 -46 -12 -172.5t-14 -204.5t-5 -111q-15 2 -54 2q-47 0 -75 -4z" />
    <glyph glyph-name="uni041D" unicode="&#x41d;" horiz-adv-x="908" 
d="M138 287v176q0 222 -13 289q24 -2 62 -2q54 0 84 4q-8 -96 -8 -276v-16q0 -4 4 -4h378q4 0 4 4v16q0 198 -10 274q28 -2 63 -2q55 0 82 4q-9 -86 -9 -291v-176q0 -206 9 -289q-24 2 -63 2q-54 0 -82 -4q10 72 10 291v74q0 4 -4 4h-379q-3 0 -3 -4v-74q0 -197 10 -289
q-22 2 -57 2q-58 0 -88 -4q10 88 10 291z" />
    <glyph glyph-name="uni041E" unicode="&#x41e;" horiz-adv-x="915" 
d="M452 -17q-98 0 -175.5 35t-123 92t-69 123.5t-23.5 135.5q0 77 26 147t74.5 126.5t127 90.5t176.5 34q176 0 283 -107.5t107 -265.5q0 -178 -108.5 -294.5t-294.5 -116.5zM478 62q40 0 78 14.5t75 46.5t59.5 94t22.5 146q0 138 -74.5 232t-198.5 94q-106 0 -172 -77.5
t-65 -212.5q0 -147 74 -242t201 -95z" />
    <glyph glyph-name="uni041F" unicode="&#x41f;" horiz-adv-x="909" 
d="M136 287v176q0 239 -11 289q20 -2 74 -2h498q66 0 86 4q-10 -76 -10 -291v-176q0 -215 11 -289q-26 2 -64 2q-58 0 -82 -4q10 86 10 291v209q0 143 -1 164q0 8 -7 8h-372q-5 0 -5 -6t-0.5 -66.5t-0.5 -83.5v-225q0 -218 11 -289q-22 2 -64 2q-54 0 -82 -4q9 66 9 291z
" />
    <glyph glyph-name="uni0420" unicode="&#x420;" horiz-adv-x="665" 
d="M136 287v176q0 229 -11 289q14 -2 53 -2q15 0 65 2t85 2q89 0 141 -17t90 -51q60 -54 60 -145q0 -108 -78 -171.5t-192 -61.5q-13 53 -19 68q165 10 165 149q0 84 -59 123q-41 36 -117 36q-38 0 -52 -4q-5 -2 -5 -22v-375q0 -202 9 -285q-30 2 -67 2q-52 0 -78 -4
q10 86 10 291z" />
    <glyph glyph-name="uni0421" unicode="&#x421;" horiz-adv-x="791" 
d="M516 -17q-207 0 -331 108q-124 111 -124 295q0 168 114 274q118 107 319 107q47 0 92.5 -5t70.5 -10.5t57.5 -14t37.5 -9.5q-15 -55 -17 -127q-36 36 -102 60t-150 24q-121 0 -196 -67q-84 -76 -84 -219q0 -49 11.5 -94.5t37.5 -87.5t63 -73t93 -49.5t123 -18.5
q143 0 218 54q-16 -56 -22 -114q-32 -13 -91.5 -23t-119.5 -10z" />
    <glyph glyph-name="uni0422" unicode="&#x422;" horiz-adv-x="680" 
d="M2 647q13 44 20 113q39 -10 161 -10h333q128 0 160 9q-11 -49 -13 -119q-27 18 -111 24q-48 4 -154 4v-381q0 -203 10 -289q-26 2 -57 2q-57 0 -88 -4q9 72 9 291v381q-90 0 -133 -2q-99 -5 -137 -19z" />
    <glyph glyph-name="uni0423" unicode="&#x423;" horiz-adv-x="674" 
d="M311 -2q-30 2 -60 2q-47 0 -85 -4q60 69 126 191q6 10 1 20q-64 132 -199 381q-79 143 -101 164q21 -2 77 -2q49 0 91 4q0 -10 49 -117q131 -270 157 -320q84 174 150 342q28 65 31 93q32 -2 59 -2q39 0 73 4q-18 -30 -76 -151q-136 -286 -224 -461q-56 -110 -69 -144z
" />
    <glyph glyph-name="uni0424" unicode="&#x424;" horiz-adv-x="915" 
d="M519 595v-439q0 -4 4 -3q95 7 147 65t52 156q0 104 -53.5 159t-146.5 64q-3 0 -3 -2zM401 157v440q0 3 -2 3q-103 -3 -154.5 -59t-51.5 -144q0 -107 53.5 -170t150.5 -73q4 -2 4 3zM393 -27q5 43 5 101q0 3 -2 3q-172 12 -253.5 95.5t-81.5 212.5q0 116 82 196t255 92
q3 0 3 3q-1 61 -7 99q2 0 22.5 -1t38.5 -1q33 0 72 3q-5 -36 -7 -100q0 -3 3 -3q165 -10 248 -84.5t83 -200.5q0 -135 -88 -217t-242 -93q-4 0 -4 -3q2 -71 6 -100q-7 0 -29.5 1t-27.5 1q-32 0 -76 -4z" />
    <glyph glyph-name="uni0425" unicode="&#x425;" horiz-adv-x="672" 
d="M140 -2q-26 2 -57 2q-47 0 -83 -4q54 63 127 172l143 216l-133 214q-68 109 -116 154q52 -2 92 -2q45 0 77 4q19 -41 68.5 -127t90.5 -148q36 52 86 134q65 109 74 139q12 -2 50 -2q41 0 89 4q-41 -42 -107 -138l-145 -208q32 -55 122 -199q101 -160 154 -211
q-17 2 -78 2q-90 0 -105 -4q-8 26 -62 124q-25 43 -58 103t-49 87l-117 -193q-21 -35 -63 -119z" />
    <glyph glyph-name="uni0426" unicode="&#x426;" horiz-adv-x="928" 
d="M900 -111l-54 -8q-20 78 -34 95q-11 15 -30.5 19.5t-79.5 4.5h-493q-61 0 -81 -3q9 83 9 289v176q0 209 -12 290q20 -2 67 -2q55 0 79 4q-8 -69 -8 -292v-152q0 -171 2 -219q0 -8 6 -8h363q6 0 6 9q3 61 3 219v151q0 207 -9 290q20 -2 63 -2q57 0 81 4q-9 -79 -9 -292
v-151q0 -195 2 -217q0 -6 7 -6q90 0 138 6q-16 -90 -16 -205z" />
    <glyph glyph-name="uni0427" unicode="&#x427;" horiz-adv-x="742" 
d="M607 463v-176q0 -223 10 -290q-15 3 -65 3q-57 0 -81 -4q10 72 10 303v66q-65 -23 -152 -23q-147 0 -209 81q-43 55 -43 163q0 113 -11 166q20 -2 64 -2q52 0 80 4q-8 -64 -8 -167q0 -165 169 -165q70 0 110 15v50q0 189 -10 265q24 -2 64 -2q61 0 81 4q-9 -86 -9 -291z
" />
    <glyph glyph-name="uni0428" unicode="&#x428;" horiz-adv-x="1221" 
d="M138 286v176q0 203 -13 290q20 -2 66 -2q56 0 80 4q-8 -69 -8 -292v-151q0 -157 2 -223q0 -5 5 -5h266q9 0 9 9q3 60 3 195v176q0 246 -12 289q7 -2 59 -2q68 0 88 4q-9 -86 -9 -291v-176q0 -155 2 -196q1 -8 10 -8h266q6 0 6 7q2 80 2 221v151q0 198 -10 290
q22 -2 63 -2q58 0 82 4q-9 -79 -9 -292v-176q0 -222 10 -289q-30 3 -78 3h-807q-61 0 -83 -3q10 74 10 289z" />
    <glyph glyph-name="uni0429" unicode="&#x429;" horiz-adv-x="1245" 
d="M1086 462v-151q0 -195 2 -217q0 -6 7 -6q88 0 138 6q-16 -90 -16 -205l-55 -8q-19 73 -35 95q-11 15 -29.5 19.5t-78.5 4.5h-808q-61 0 -83 -3q10 74 10 289v176q0 203 -13 290q20 -2 66 -2q56 0 80 4q-8 -69 -8 -292v-151q0 -157 2 -223q0 -5 5 -5h266q9 0 9 9
q3 60 3 195v176q0 246 -12 289q7 -2 59 -2q68 0 88 4q-9 -86 -9 -291v-176q0 -155 2 -196q1 -8 10 -8h266q6 0 6 7q2 80 2 221v151q0 198 -10 290q22 -2 63 -2q58 0 82 4q-9 -79 -9 -292z" />
    <glyph glyph-name="uni042A" unicode="&#x42a;" horiz-adv-x="808" 
d="M373 448q0 -5 4 -5h60q132 0 211 -41q109 -60 109 -185q0 -95 -77.5 -159.5t-212.5 -64.5q-59 0 -110 3.5t-60 3.5q-40 0 -56 -2q9 106 9 289v174q0 166 -4 207q-46 0 -101 -2q-99 -4 -137 -19q13 44 20 113q39 -10 161 -10h114l80 4q-10 -95 -10 -306zM373 361v-74
q0 -191 8 -198q21 -19 98 -19q64 0 104.5 36t40.5 102q0 79 -56 121q-49 38 -148 38q-29 0 -43 -2q-4 0 -4 -4z" />
    <glyph glyph-name="uni042B" unicode="&#x42b;" horiz-adv-x="1041" 
d="M260 361v-74q0 -191 7 -198q21 -19 98 -19q62 0 103.5 37t41.5 101q0 79 -55 121q-51 38 -152 38q-26 0 -40 -2q-3 0 -3 -4zM136 287v174q0 247 -11 291q7 -2 60 -2q64 0 84 4q-9 -86 -9 -306q0 -5 4 -5h60q132 0 211 -41q108 -59 108 -185q0 -95 -77 -159.5t-212 -64.5
q-59 0 -110 3.5t-61 3.5q-41 0 -55 -2q8 118 8 289zM780 287v176q0 246 -12 289q12 -2 60 -2q67 0 87 4q-9 -86 -9 -291v-176q0 -242 11 -289q-22 2 -62 2q-58 0 -84 -4q9 72 9 291z" />
    <glyph glyph-name="uni042C" unicode="&#x42c;" horiz-adv-x="694" 
d="M260 361v-74q0 -191 7 -198q21 -19 98 -19q62 0 103.5 37t41.5 101q0 79 -55 121q-51 38 -152 38q-26 0 -40 -2q-3 0 -3 -4zM136 287v174q0 247 -11 291q7 -2 60 -2q64 0 84 4q-9 -86 -9 -306q0 -5 4 -5h60q132 0 211 -41q108 -59 108 -185q0 -95 -77 -159.5t-212 -64.5
q-59 0 -110 3.5t-61 3.5q-41 0 -55 -2q8 118 8 289z" />
    <glyph glyph-name="uni042D" unicode="&#x42d;" horiz-adv-x="784" 
d="M61 16q-8 75 -22 123q41 -29 105.5 -46t131.5 -17q83 0 143 24t92.5 65.5t48 85.5t19.5 97h-285q-109 0 -138 -8q21 59 23 107q24 -8 95 -11q96 -7 306 -7q-6 117 -80 186q-76 70 -205 70q-154 0 -235 -83q0 70 -16 127q5 1 37.5 9.5t57 13.5t68 10t87.5 5
q207 0 322 -104q108 -99 108 -276q0 -186 -124 -296q-124 -108 -331 -108q-128 0 -208 33z" />
    <glyph glyph-name="uni042E" unicode="&#x42e;" horiz-adv-x="1246" 
d="M819 61q41 0 78.5 15t71.5 47t54.5 93.5t20.5 144.5q0 136 -68.5 233t-182.5 97q-105 0 -167.5 -78t-62.5 -208q0 -154 70 -249t186 -95zM138 287v176q0 232 -13 289q10 -2 60 -2q66 0 86 4q-8 -76 -8 -275v-23q0 -5 5 -5h158q6 0 7 6q24 132 120 221t255 89
q170 0 273.5 -111t103.5 -272q0 -174 -101.5 -287.5t-281.5 -113.5q-92 0 -164.5 32.5t-116 87t-66.5 118.5t-27 133q0 4 -5 4h-155q-5 0 -5 -5v-66q0 -229 10 -289q-20 2 -61 2q-52 0 -84 -4q10 78 10 291z" />
    <glyph glyph-name="uni042F" unicode="&#x42f;" horiz-adv-x="746" 
d="M610 463v-176q0 -206 12 -290q-24 3 -67 3q-59 0 -79 -4q11 74 11 273v27q0 6 -3 6q-16 -1 -50 -1q-17 0 -62 3q-3 0 -8 -5q-11 -15 -74.5 -108.5t-85.5 -121.5q-36 -46 -59 -60q-33 -18 -105 -17q-39 0 -55 6q27 17 87 88q26 31 81 105q82 112 107 137q-126 67 -126 203
q0 120 107 183q67 40 190 40q22 0 67 -2t52 -2q61 0 72 2q-12 -41 -12 -289zM487 390q0 219 -1 277q0 5 -3 7q-17 5 -62 5q-74 0 -118.5 -35.5t-44.5 -109.5q0 -47 21.5 -85t62.5 -56q33 -15 86 -15q34 0 54 4q5 2 5 8z" />
    <glyph glyph-name="uni0430" unicode="&#x430;" horiz-adv-x="645" 
d="M409 175h-214q-4 0 -4 -3q-47 -120 -61 -174q-26 2 -54 2q-39 0 -72 -3q22 40 107 222l171 391q21 42 28 42q8 0 27 -42q43 -86 185 -384q99 -203 118 -228q-52 2 -62 2q-43 0 -91 -3q-33 86 -74 175q0 3 -4 3zM222 251h158q3 0 3 4l-85 197l-78 -197q-1 -4 2 -4z" />
    <glyph glyph-name="uni0431" unicode="&#x431;" horiz-adv-x="633" 
d="M239 303v-59q0 -157 5 -162q19 -16 86 -16q53 0 87.5 30t34.5 82q0 64 -46 98q-42 32 -131 32q-7 0 -19 -0.5t-14 -0.5q-3 -1 -3 -4zM242 556q-3 -39 -3 -173q0 -4 4 -4h51q123 0 189 -36q97 -49 97 -158q0 -82 -69 -136.5t-191 -54.5q-54 0 -100.5 3t-54.5 3
q-40 0 -54 -2q8 85 8 246v148q0 146 -6 214q-1 9 -4 33q10 -2 58 -2h216q114 0 144 8q-11 -46 -13 -109q-25 17 -98 21q-43 4 -169 4q-5 0 -5 -5z" />
    <glyph glyph-name="uni0432" unicode="&#x432;" horiz-adv-x="633" 
d="M239 562v-179q0 -4 4 -5q17 -2 84 -2q30 0 43 8q41 28 41 83q0 47 -31 75.5t-89 28.5q-39 0 -49 -4q-3 -1 -3 -5zM453 178q0 55 -43 92q-36 32 -106 35q-47 2 -61 0q-4 -1 -4 -4v-56q0 -153 5 -160q16 -19 89 -19q49 0 84.5 29.5t35.5 82.5zM120 244v150q0 184 -11 245
q24 -2 55 -2q22 0 70.5 1.5t81.5 1.5q113 0 159.5 -44t46.5 -104q0 -46 -25 -80.5t-62 -51.5q146 -44 146 -170q0 -83 -66.5 -139.5t-185.5 -56.5q-39 0 -141 6q-25 0 -76 -3q8 76 8 247z" />
    <glyph glyph-name="uni0433" unicode="&#x433;" horiz-adv-x="494" 
d="M123 244v150q0 186 -11 245q26 -2 79 -2h202q69 0 96 5q-5 -30 -9 -98q-24 10 -81 13q-60 4 -149 4q-4 0 -4 -6q-1 -44 -1 -191v-120q0 -196 9 -246q-16 2 -62 2q-42 0 -78 -3q9 65 9 247z" />
    <glyph glyph-name="uni0434" unicode="&#x434;" horiz-adv-x="697" 
d="M186 78q7 -2 138 -2t139 2q4 1 3 7q-12 30 -63.5 153.5t-70.5 172.5q-9 19 -11 19q-4 0 -13 -20q-99 -258 -125 -326q-1 -6 3 -6zM52 -97l-52 -7q1 116 -4 189q46 -6 80 -6q6 0 10 7l209 489q25 52 31 63.5t12 11.5q8 0 27 -39q40 -86 115.5 -257.5t118.5 -264.5
q4 -7 10 -7q54 0 106 4q-16 -80 -16 -183l-53 -7q-19 69 -37 89q-7 8 -18 11q-21 4 -93 4h-292q-77 0 -101 -3q-13 -3 -20 -13q-13 -18 -33 -81z" />
    <glyph glyph-name="uni0435" unicode="&#x435;" horiz-adv-x="542" 
d="M121 244v150q0 200 -12 245q17 -2 75 -2h209q67 0 84 5q-8 -48 -8 -103q-25 13 -86 18q-60 4 -138 4q-3 0 -3 -3v-178q0 -5 3 -5q105 0 135 1q61 2 82 8q-9 -42 -9 -104q-22 13 -70 17q-44 3 -138 3q-3 0 -3 -4v-41q0 -166 6 -172q4 -4 20 -6q48 -4 86 -4q107 0 151 20
q-16 -51 -22 -96q-6 -3 -51 -3q-67 0 -144 3t-95 3q-54 0 -82 -2q10 78 10 246z" />
    <glyph glyph-name="uni0436" unicode="&#x436;" horiz-adv-x="971" 
d="M547 335v6q6 4 22 20q23 22 53.5 57.5t60.5 72.5t39 47q57 66 75 101q22 -2 47 -2q76 0 108 4q-59 -46 -119 -107q-163 -170 -168 -177q42 -56 210 -247q72 -77 125 -105q-11 -11 -78 -11q-57 0 -92 14t-74 60q-41 47 -209 267zM546 398v-159q0 -205 10 -241q-20 2 -60 2
q-50 0 -80 -4q7 45 8 245v152q2 208 -11 246q20 -2 58 -2q65 0 83 4q-8 -85 -8 -243zM423 339v-5q-115 -159 -215 -268q-41 -45 -73 -58.5t-91 -13.5q-54 0 -75 9q39 21 124 108q133 140 216 240q-14 18 -74.5 82t-96.5 100q-67 68 -121 106q34 -2 69 -2q66 0 88 4
q12 -30 75 -103q12 -13 64.5 -75t76.5 -89q15 -17 33 -35z" />
    <glyph glyph-name="uni0437" unicode="&#x437;" horiz-adv-x="535" 
d="M35 14q10 52 8 115q20 -22 66.5 -43t101.5 -21q63 0 103.5 28t40.5 88q0 62 -42 91.5t-108 29.5q-29 0 -53 -5q10 60 7 84q14 -3 42 -3q52 0 82.5 25t30.5 74q0 38 -27 66.5t-85 28.5q-88 0 -139 -53q2 18 0 58.5t-5 50.5q4 1 35 8t64.5 11.5t71.5 4.5q59 0 102 -15.5
t64 -40.5t30.5 -50t9.5 -50q0 -96 -106 -138q-1 -2 0 -3q65 -14 109.5 -54.5t44.5 -111.5q0 -89 -75.5 -146t-199.5 -57q-93 0 -173 28z" />
    <glyph glyph-name="uni0438" unicode="&#x438;" horiz-adv-x="820" 
d="M243 641q-13 -118 -15 -438q48 45 183.5 186t184.5 186q85 77 93 77q9 0 9 -47v-130q-1 -149 4 -290t10 -188q-30 3 -73 3q-26 0 -59 -3q9 100 13 433q-55 -46 -224.5 -218t-207.5 -207q-22 -21 -30 -21q-9 0 -9 29q0 139 -4.5 359t-10.5 267q42 -2 63 -2q60 0 73 4z" />
    <glyph glyph-name="uni0439" unicode="&#x439;" horiz-adv-x="820" 
d="M243 641q-13 -118 -15 -438q48 45 183.5 186t184.5 186q85 77 93 77q9 0 9 -47v-130q-1 -149 4 -290t10 -188q-30 3 -73 3q-26 0 -59 -3q9 100 13 433q-55 -46 -224.5 -218t-207.5 -207q-22 -21 -30 -21q-9 0 -9 29q0 139 -4.5 359t-10.5 267q42 -2 63 -2q60 0 73 4z
M225 781q12 42 14 83l4 1q16 -33 62 -59.5t110 -26.5q109 0 185 83l3 -1l-9 -58q-32 -48 -84.5 -71t-111.5 -23q-60 0 -107 20t-66 52z" />
    <glyph glyph-name="uni043A" unicode="&#x43a;" horiz-adv-x="680" 
d="M506 640q14 -3 41 -3q40 0 112 4q-61 -45 -123 -107q-150 -150 -176 -181q72 -91 220 -243q94 -92 131 -107q-13 -9 -70 -9q-66 0 -102.5 15t-84.5 70q-57 61 -211 251q-3 6 0 9q97 88 183 196q25 27 50 60.5t30 44.5zM119 244v150q0 205 -10 245q20 -2 57 -2q51 0 83 4
q-8 -88 -8 -247v-150q0 -209 10 -246q-20 2 -53 2q-57 0 -87 -4q8 56 8 248z" />
    <glyph glyph-name="uni043B" unicode="&#x43b;" horiz-adv-x="645" 
d="M416 173l-117 266l-102 -252q-49 -126 -66 -189q-28 2 -55 2q-39 0 -72 -3q38 72 109 222l176 391q20 42 28 42t27 -42q2 -4 32 -68t71.5 -152.5t75.5 -163.5q84 -183 117 -228q-52 2 -62 2q-43 0 -91 -3q-15 43 -71 176z" />
    <glyph glyph-name="uni043C" unicode="&#x43c;" horiz-adv-x="921" 
d="M78 -3q22 95 73 508q11 82 17 131q3 16 8 16q6 0 14 -14q10 -14 41.5 -66t42.5 -68l190 -317l153 265q71 105 109 174q17 26 24 26t9 -24q14 -122 16 -135q51 -435 68 -495q-18 2 -59 2q-56 0 -82 -3q0 28 -5 99.5t-13 172.5t-10 133q-130 -227 -220 -404q-8 -14 -16 -1
q-35 73 -113.5 216t-99.5 184q-24 -331 -25 -399q-13 2 -51 2q-35 0 -71 -3z" />
    <glyph glyph-name="uni043D" unicode="&#x43d;" horiz-adv-x="807" 
d="M121 244v150q0 192 -12 245q22 -2 60 -2q52 0 80 4q-7 -108 -7 -233v-12q0 -5 3 -5h320q4 0 4 5v12q0 157 -9 231q26 -2 60 -2q52 0 79 4q-9 -59 -9 -247v-150q0 -174 9 -246q-22 2 -61 2q-63 0 -78 -3q9 83 9 247v57q0 4 -3 4h-321q-3 0 -3 -4v-57q0 -156 9 -246
q-20 2 -55 2q-45 0 -84 -3q9 83 9 247z" />
    <glyph glyph-name="uni043E" unicode="&#x43e;" 
d="M404 -14q-71 0 -130 19.5t-98.5 52t-67 75.5t-40 88.5t-12.5 92.5q0 65 22.5 124.5t65.5 107.5t113 77t157 29q157 0 251 -91.5t94 -225.5q0 -152 -95 -250.5t-260 -98.5zM423 58q34 0 66.5 11.5t63.5 38t50 78t19 121.5q0 113 -61.5 193t-167.5 80q-90 0 -145.5 -62.5
t-55.5 -176.5q1 -119 62.5 -201t168.5 -82z" />
    <glyph glyph-name="uni043F" unicode="&#x43f;" horiz-adv-x="807" 
d="M119 244v150q0 201 -10 245q20 -2 71 -2h436q62 0 82 4q-9 -74 -9 -247v-150q0 -187 10 -246q-26 2 -62 2q-45 0 -78 -3q8 74 8 247v168v142q0 6 -6 6h-315q-4 0 -4 -4t-0.5 -56.5t-0.5 -71.5v-184q0 -178 10 -246q-20 2 -61 2q-40 0 -79 -3q8 59 8 247z" />
    <glyph glyph-name="uni0440" unicode="&#x440;" horiz-adv-x="598" 
d="M118 244v150q0 186 -9 245q12 -2 50 -2q15 0 59 2t76 2q143 0 210 -59q53 -45 53 -123q0 -94 -69 -148t-173 -54q-11 45 -18 62q141 8 141 125q0 68 -46 101q-36 31 -104 31q-35 0 -44 -4q-4 -1 -4 -18v-313q0 -183 9 -243q-30 2 -65 2q-39 0 -75 -3q9 67 9 247z" />
    <glyph glyph-name="uni0441" unicode="&#x441;" horiz-adv-x="703" 
d="M459 -14q-184 0 -293 91q-110 93 -110 251q0 146 103 233q104 91 282 91q41 0 81 -4.5t62.5 -9t50 -11t33.5 -7.5q-15 -58 -16 -118q-76 74 -221 74q-104 0 -164 -53q-75 -65 -75 -183q0 -71 28.5 -130t94 -98.5t159.5 -39.5q124 0 193 47q-11 -34 -22 -106
q-71 -27 -186 -27z" />
    </font>
</defs>
</svg>
